<?xml version="1.0" standalone="no"?>
<!DOCTYPE svg PUBLIC "-//W3C//DTD SVG 1.1//EN" "http://www.w3.org/Graphics/SVG/1.1/DTD/svg11.dtd" >
<!--
2013-9-30: Created.
-->
<svg>
<metadata>
Created by iconfont
</metadata>
<defs>

<font id="iconfont" horiz-adv-x="1024" >
  <font-face
    font-family="iconfont"
    font-weight="500"
    font-stretch="normal"
    units-per-em="1024"
    ascent="896"
    descent="-128"
  />
    <missing-glyph />
    
    <glyph glyph-name="sanlan" unicode="&#58929;" d="M202.88438035 160.68485641999996l0-74.34465409c0-45.23697853 36.71502113-81.95199967 81.95199965-81.95199966l454.32878495 1e-8c45.237751 0 81.95045471 36.71502113 81.9504547 81.95199965l0 74.34465409c0 45.23697853-36.71270371 81.95199967-81.95045471 81.95199966L284.83715248 242.63685607000002C239.59940147 242.63685607000002 202.88438035 205.92106247000004 202.88438035 160.68485641999996L202.88438035 160.68485641999996zM739.16593742 201.66085625000005c22.65904427 0 40.97445488-18.31618308 40.97445489-40.97599983l0-74.34465409c0-22.61810302-18.31541062-40.97599983-40.97445489-40.97599984L284.83715248 45.36420248000002c-22.61810302 0-40.97599983 18.35866928-40.97599982 40.97599986l0 74.34465408c0 22.6582718 18.3578968 40.97599983 40.97599982 40.97599983L739.16593742 201.66085625000005 739.16593742 201.66085625000005zM190.52476121 421.78181077l0-74.3446541c0-45.23697853 36.71502113-81.95199967 81.95199965-81.95199966l454.32878495 0c45.237751 0 81.95045471 36.71502113 81.9504547 81.95199966l0 74.3446541c0 45.23697853-36.71270371 81.95199967-81.95045471 81.95199965L272.47753334 503.73381041C227.23978233 503.73381041 190.52476121 467.01801682 190.52476121 421.78181077L190.52476121 421.78181077zM726.80631828 462.75781059c22.65904427 0 40.97445488-18.31618308 40.97445489-40.97599982l0-74.3446541c0-22.61810302-18.31541062-40.97599983-40.97445489-40.97599983L272.47753335 306.46115683999994c-22.61810302 0-40.97599983 18.35866928-40.97599984 40.97599984l0 74.34465409c0 22.6582718 18.3578968 40.97599983 40.97599983 40.97599983L726.80631828 462.75781059 726.80631828 462.75781059zM95.838 770.91l0-96.241c0-58.562 47.529-106.09 106.09-106.09l588.146 0c58.562 0 106.088 47.528 106.08799999 106.09l1e-8 96.24099999c0 58.561-47.526 106.09-106.088 106.09000001L201.92900001 877C143.36700001 877 95.838 829.47 95.838 770.91L95.838 770.91zM790.075 823.955c29.333 0 53.043-23.71099999 53.043-53.045l0-96.241c0-29.28-23.71-53.045-53.043-53.045L201.929 621.624c-29.28 0-53.045 23.766-53.045 53.045l0 96.241c0 29.33200001 23.765 53.045 53.045 53.045L790.075 823.955 790.075 823.955z"  horiz-adv-x="1024" />

    
    <glyph glyph-name="shang" unicode="&#58918;" d="M102.4 204.3904c0 11.4688 4.608 22.4256 12.5952 30.6176l363.9296 363.9296c8.192 8.0896 19.0464 12.5952 30.6176 12.5952s22.528-4.608 30.6176-12.5952l368.7424-368.7424c16.896-16.896 16.896-44.2368 0-61.1328s-44.2368-16.896-61.1328 0L509.5424 507.1872 176.128 173.8752c-12.288-12.3904-30.9248-16.0768-47.104-9.4208-16.0768 6.7584-26.624 22.528-26.624 39.936z"  horiz-adv-x="1024" />

    
    <glyph glyph-name="jiantou" unicode="&#58960;" d="M927.804 543.807L512 128.175 96.197 543.807l63.616 63.445 352.209-352.017 352.102 352.017z"  horiz-adv-x="1024" />

    
    <glyph glyph-name="sousuokuang" unicode="&#59003;" d="M847.152 246.272a130.88 130.88 0 0 1 29.504 82.976c0 72.584-58.784 131.424-131.296 131.424-72.496 0-131.28-58.84-131.28-131.424 0-72.568 58.792-131.416 131.28-131.416 31.608 0 60.616 11.192 83.264 29.816l98.2-98.288 18.56 18.576-98.232 98.336z m-101.8-22.144c-58 0-105.016 47.064-105.016 105.128 0 58.072 47.016 105.144 105.016 105.144 58.016 0 105.04-47.072 105.04-105.144s-47.024-105.128-105.04-105.128zM191.304 180c-34.624 0-62.688 36.44-62.688 81.392V447.944c0 44.96 28.064 81.392 62.688 81.392h657.288c34.624 0 62.688-36.432 62.688-81.392v-48.792a178.84 178.84 0 0 0 25.336-26.384V462.896c0 52.16-29.88 94.44-66.744 94.44h-699.84c-36.864 0-66.744-42.28-66.744-94.44v-216.464c0-52.16 29.872-94.44 66.744-94.44h487.424a178.28 178.28 0 0 0-18.456 28H191.304z"  horiz-adv-x="1024" />

    
    <glyph glyph-name="wangye1" unicode="&#59058;" d="M215.196805 713.658072c-17.838172 0-32.350463-14.512291-32.350464-32.350463s14.512291-32.350463 32.350464-32.350463 32.350463 14.512291 32.350463 32.350463-14.513306 32.350463-32.350463 32.350463zM431.699807 713.658072c-17.838172 0-32.350463-14.512291-32.350464-32.350463s14.511276-32.350463 32.350464-32.350463c17.835128 0 32.345389 14.512291 32.345389 32.350463s-14.510261 32.350463-32.345389 32.350463zM323.445768 713.658072c-17.835128 0-32.345389-14.512291-32.345388-32.350463s14.510261-32.350463 32.345388-32.350463c17.838172 0 32.350463 14.512291 32.350464 32.350463s-14.513306 32.350463-32.350464 32.350463zM864.703781 821.907036H161.071308c-47.681792 0-86.474945-38.793153-86.474945-86.47596v-703.630444c0-47.682807 38.793153-86.474945 86.474945-86.474945h703.632473c47.682807 0 86.474945 38.792138 86.474945 86.474945v703.631459c0 47.682807-38.792138 86.474945-86.474945 86.474945z m21.778078-281.199869v-481.845816c0-26.930809-21.909002-48.839812-48.839811-48.839812H188.131011c-26.929794 0-48.838797 21.909002-48.838796 48.839812V540.707167h747.189644zM139.292215 605.403019V708.372387c0 26.929794 21.909002 48.838797 48.838796 48.838797h649.511037c26.930809 0 48.839812-21.909002 48.839811-48.838797V605.403019H139.292215z"  horiz-adv-x="1024" />

    
    <glyph glyph-name="sousuokuang1" unicode="&#58917;" d="M979.626667 107.52H44.373333V544.426667h413.013334c6.826667 0 13.653333-6.826667 13.653333-13.653334s-6.826667-13.653333-13.653333-13.653333H75.093333v-375.466667h873.813334v375.466667h-58.026667c-6.826667 0-13.653333 6.826667-13.653333 13.653333s6.826667 13.653333 13.653333 13.653334h88.746667v-436.906667zM672.426667 336.213333c-88.746667 0-160.426667 71.68-160.426667 160.426667S583.68 657.066667 672.426667 657.066667s160.426667-71.68 160.426666-160.426667-71.68-160.426667-160.426666-160.426667z m0 293.546667c-71.68 0-133.12-58.026667-133.12-133.12s58.026667-133.12 133.12-133.12 133.12 58.026667 133.12 133.12-61.44 133.12-133.12 133.12zM860.16 312.32c-3.413333 0-6.826667 0-10.24 3.413333l-68.266667 68.266667c-6.826667 6.826667-6.826667 17.066667 0 20.48 6.826667 6.826667 17.066667 6.826667 20.48 0l68.266667-68.266667c6.826667-6.826667 6.826667-17.066667 0-20.48-3.413333-3.413333-6.826667-3.413333-10.24-3.413333z"  horiz-adv-x="1024" />

    
    <glyph glyph-name="zhiding" unicode="&#59063;" d="M704 483.2L537.2 650c-6.6 6.6-15.5 9.7-24.2 9.3-8.7 0.4-17.6-2.7-24.2-9.3L322 483.2c-12.5-12.5-12.5-32.9 0-45.4s32.9-12.5 45.4 0L513 583.5l145.7-145.7c12.5-12.5 32.9-12.5 45.4 0 12.4 12.5 12.4 32.9-0.1 45.4zM479.2 98V561.9c0 17.6 14.4 32.1 32.1 32.1 17.6 0 32.1-14.4 32.1-32.1V98c0-17.6-14.4-32.1-32.1-32.1-17.6 0-32.1 14.5-32.1 32.1zM895.9 704H130.1c-17.6 0-32.1 14.4-32.1 32.1 0 17.6 14.4 32.1 32.1 32.1h765.8c17.6 0 32.1-14.4 32.1-32.1 0-17.7-14.4-32.1-32.1-32.1z"  horiz-adv-x="1024" />

    
    <glyph glyph-name="dianxian--" unicode="&#58915;" d="M135.483077 448.984615v-78.76923h-78.769231v78.76923zM229.612308 448.984615v-78.76923h-78.769231v78.76923zM323.741538 448.984615v-78.76923h-78.76923v78.76923zM417.870769 449.378462v-78.769231h-78.769231v78.769231zM512 449.378462v-78.769231h-78.769231v78.769231zM606.129231 449.378462v-78.769231h-78.769231v78.769231zM700.652308 449.378462v-78.769231h-78.769231v78.769231zM794.781538 449.378462v-78.769231h-78.76923v78.769231zM888.910769 449.378462v-78.769231h-78.769231v78.769231zM983.04 449.378462v-78.769231h-78.769231v78.769231z"  horiz-adv-x="1024" />

    
    <glyph glyph-name="xuxian" unicode="&#58948;" d="M192 441.6v-128H0v128h192z m256 0v-128H320v128h128z m384 0h192v-128h-192v128z m-128 0v-128H576v128h128z"  horiz-adv-x="1024" />

    
    <glyph glyph-name="icon_fengexian_shixian" unicode="&#58916;" d="M143.36 435.2h742.4c20.48 0 40.96-15.36 40.96-40.96-5.12-20.48-20.48-35.84-46.08-35.84H143.36C117.76 358.4 102.4 373.76 102.4 399.36 102.4 419.84 117.76 435.2 143.36 435.2zM163.84 399.36m-61.44 0a61.44 61.44 0 1 1 122.88 0 61.44 61.44 0 1 1-122.88 0ZM860.16 399.36m-61.44 0a61.44 61.44 0 1 1 122.88 0 61.44 61.44 0 1 1-122.88 0Z"  horiz-adv-x="1024" />

    
    <glyph glyph-name="icon_wubianju" unicode="&#58912;" d="M844.8 407.04v51.2c0 20.48 15.36 40.96 40.96 40.96s35.84-15.36 35.84-40.96v-179.2c0-20.48-15.36-35.84-40.96-35.84s-40.96 15.36-40.96 40.96v51.2h-665.6v-51.2c5.12-25.6-10.24-40.96-30.72-40.96s-40.96 15.36-40.96 40.96v174.08c0 25.6 15.36 40.96 40.96 40.96s40.96-15.36 40.96-40.96v-51.2h660.48z"  horiz-adv-x="1024" />

    
    <glyph glyph-name="icon_zuoyoubianju" unicode="&#58914;" d="M194.56 407.04h640c20.48 0 40.96-15.36 40.96-40.96 0-20.48-15.36-40.96-40.96-40.96H194.56c-25.6 10.24-40.96 25.6-40.96 46.08s15.36 35.84 40.96 35.84zM230.4 458.24v-179.2c0-20.48-15.36-35.84-35.84-35.84-25.6 0-40.96 15.36-40.96 40.96v174.08c0 25.6 15.36 40.96 40.96 40.96 20.48 0 35.84-15.36 35.84-40.96zM102.4 509.44v-281.6c0-20.48-15.36-35.84-40.96-35.84-20.48 0-35.84 15.36-35.84 40.96v276.48c0 25.6 15.36 40.96 35.84 40.96 25.6 0 40.96-15.36 40.96-40.96zM870.4 458.24v-179.2c0-20.48-15.36-35.84-40.96-35.84-20.48 0-40.96 15.36-40.96 40.96v174.08c0 20.48 15.36 40.96 40.96 40.96s40.96-15.36 40.96-40.96zM998.4 509.44v-281.6c0-20.48-15.36-40.96-40.96-40.96-20.48 5.12-35.84 20.48-35.84 46.08v276.48c0 25.6 15.36 40.96 40.96 40.96 20.48 0 35.84-15.36 35.84-40.96z"  horiz-adv-x="1024" />

    
    <glyph glyph-name="fuzhuxiantiao" unicode="&#59075;" d="M73.143 822.857v-121.903c0-24.383 24.383-48.76 48.76-48.76h780.194c24.377 0 48.76 24.377 48.76 48.76V822.857H73.143z m828.954-707.046H121.903c-24.377 0-48.76-24.383-48.76-48.766v-121.903h877.714V67.046c0 24.383-24.383 48.765-48.76 48.765zM0 359.623h1024v48.76H0v-48.76z"  horiz-adv-x="1024" />

    
    <glyph glyph-name="fuzhukongbai_weixuanzhong" unicode="&#58911;" d="M621.714286 814.409143v-255.122286h249.197714a18.285714 18.285714 0 0 1 13.092571 31.049143l-230.912 236.836571a18.285714 18.285714 0 0 1-31.378285-12.8zM219.794286 859.355429h435.2l259.657143-263.314286v-541.257143a146.285714 146.285714 0 0 0-146.285715-146.285714h-548.571428a146.285714 146.285714 0 0 0-146.285715 146.285714v658.285714a146.285714 146.285714 0 0 0 146.285715 146.285715z m419.876571-36.571429H219.830857a109.714286 109.714286 0 0 1-109.714286-109.714286v-658.285714a109.714286 109.714286 0 0 1 109.714286-109.714286h548.571429a109.714286 109.714286 0 0 1 109.714285 109.714286V581.046857l-238.445714 241.737143zM640 577.572571v274.285715h-36.571429v-292.571429a18.285714 18.285714 0 0 1 18.285715-18.285714h292.571428v36.571428h-274.285714z"  horiz-adv-x="1024" />

    
    <glyph glyph-name="yizuosanyou" unicode="&#59019;" d="M540.458667 725.333333H938.666667v-292.565333h-398.208zM85.333333 725.333333h341.333334v-682.666666H85.333333zM540.458667 335.232h170.666666V42.666667h-170.666666zM768 335.232h170.666667V42.666667h-170.666667z"  horiz-adv-x="1024" />

    
    <glyph glyph-name="erzuoeryou" unicode="&#59015;" d="M85.333333 725.333333h373.333334v-298.666666H85.333333zM565.333333 725.333333H938.666667v-298.666666h-373.333334zM565.333333 341.333333H938.666667v-298.666666h-373.333334zM85.333333 341.333333h373.333334v-298.666666H85.333333z"  horiz-adv-x="1024" />

    
    <glyph glyph-name="yihangerge" unicode="&#59016;" d="M85.333333 725.333333h387.882667v-682.666666H85.333333zM550.784 725.333333H938.666667v-682.666666h-387.882667z"  horiz-adv-x="1024" />

    
    <glyph glyph-name="yihangsige" unicode="&#59017;" d="M85.333333 725.333333h142.208v-682.666666H85.333333zM322.389333 725.333333h142.208v-682.666666H322.389333zM559.402667 725.333333h142.208v-682.666666h-142.208zM796.458667 725.333333H938.666667v-682.666666h-142.208z"  horiz-adv-x="1024" />

    
    <glyph glyph-name="yizuoeryou" unicode="&#59018;" d="M540.458667 725.333333H938.666667v-292.565333h-398.208zM85.333333 725.333333h341.333334v-682.666666H85.333333zM540.458667 335.232H938.666667V42.666667h-398.208z"  horiz-adv-x="1024" />

    
    <glyph glyph-name="yishangerxia" unicode="&#58953;" d="M540.16 53.76V343.04c0 4.096 2.048 7.68 4.608 7.68h292.864c2.56 0 4.608-3.584 4.608-7.68v-289.28c0-4.096-2.048-7.68-4.608-7.68h-292.864c-2.048-0.512-4.608 3.072-4.608 7.68zM206.336 53.76V343.04c0 4.096 2.048 7.68 4.608 7.68h292.864c2.56 0 4.608-3.584 4.608-7.68v-289.28c0-4.096-2.048-7.68-4.608-7.68H210.944c-2.56-0.512-4.608 3.072-4.608 7.68zM206.336 390.656V679.936c0 4.096 4.608 7.68 10.24 7.68h619.52c5.632 0 10.24-3.584 10.24-7.68v-289.28c0-4.096-4.608-7.68-10.24-7.68h-619.52c-5.632 0-10.24 3.584-10.24 7.68z"  horiz-adv-x="1024" />

    
    <glyph glyph-name="guding" unicode="&#59802;" d="M901.54 586.9c-14.17 18.32-71.37 73.28-90.78 91.79a44.52 44.52 0 0 1-4 4.95c-17 18-73.93 78.05-92.61 92.65a47.16 47.16 0 0 1-47.77 6.64c-25.69-10.74-35.61-38.35-44.07-82.41-2.14-11.16-3.87-22.07-5.14-30.79L442.73 537.39c-23.84 9.26-50.9 13.51-80.83 12.66-30.89-0.88-65.09-7.22-101.66-18.85a598.57 598.57 0 0 1-109.15-47.52 43 43 0 0 1-9.1-67.17l168.44-172.6-188-184.19a43 43 0 0 1 60.18-61.44l188.15 184.34 166.51-170a43 43 0 0 1 67.58 8 605.18 605.18 0 0 1 49.08 108.82c12.17 36.51 19.05 70.73 20.45 101.71 1.37 30.35-2.5 57.85-11.5 82.12L795.52 490c8.63 1.27 19.41 3 30.42 5.14 43.81 8.49 71.28 18.42 82 44.05a47.23 47.23 0 0 1-6.4 47.71zM767 572.89A43 43 0 0 1 737.54 556l-159-211.84c-0.43-0.58-0.85-1.17-1.25-1.76v-0.07c-0.36-0.53-0.7-1.07-1-1.62l-0.18-0.29c-0.26-0.43-0.51-0.87-0.75-1.31l-0.36-0.65-0.44-0.87c-0.18-0.38-0.37-0.75-0.55-1.12 0-0.1-0.08-0.2-0.13-0.3a42.92 42.92 0 0 1-1.59-31.63c0-0.12 0.07-0.23 0.11-0.34 0.13-0.38 0.28-0.77 0.43-1.15s0.23-0.62 0.35-0.93 0.19-0.44 0.29-0.66c0.2-0.47 0.4-0.94 0.62-1.4l0.14-0.3c0.28-0.58 0.57-1.15 0.87-1.72v-0.06c0.34-0.64 0.7-1.27 1.07-1.89 12.45-20.6 22-61.27-3.33-138.07-5-15.23-10.69-29.56-16.2-42.21L402.7 272.9a42.13 42.13 0 0 1-3.58 3.26L245.1 434c12.32 5.18 26.29 10.51 41.19 15.25 70 22.25 109.77 16 131.8 5.11a44.22 44.22 0 0 1 57.51 0L683.41 612a43 43 0 0 1 16.72 29.33c1 8.35 2.2 17.07 3.56 25.51a3544.52 3544.52 0 0 0 40.46-42.22l0.11-0.11a43 43 0 0 1 5.82-6.83c13.92-13.26 29-27.88 42.53-41.22-8.42-1.33-17.18-2.57-25.61-3.57z"  horiz-adv-x="1024" />

    
    <glyph glyph-name="hengxianghuadong" unicode="&#59010;" d="M551.5264 41.984a58.9312 58.9312 0 0 0 0 79.2064l198.144 211.5072h-599.04C123.9552 332.8 102.4 355.7376 102.4 384.0512c0 28.2624 21.5552 51.2 48.1792 51.2H749.568l-198.0416 211.5072a58.9824 58.9824 0 0 0 0 79.2576 49.664 49.664 0 0 0 72.704 1.1264l1.0752-1.1264 281.088-300.6464c20.2752-23.5008 20.2752-59.392 0-82.944l-281.088-300.4416a49.8176 49.8176 0 0 0-72.7552-1.1776l-1.024 1.1776z"  horiz-adv-x="1024" />

    
    <glyph glyph-name="liebiaoqiehuan-" unicode="&#58906;" d="M974.98112 336.484352H258.537472c-26.259456 0-47.511552 21.250048-47.511552 47.511552 0 26.241024 21.252096 47.5136 47.511552 47.5136h716.443648c26.269696 0 47.519744-21.272576 47.519744-47.5136-0.002048-26.261504-21.252096-47.511552-47.519744-47.511552M974.98112 716.578816H258.537472c-26.259456 0-47.511552 21.272576-47.511552 47.5136 0 26.236928 21.252096 47.511552 47.511552 47.511552h716.443648c26.269696 0 47.519744-21.272576 47.519744-47.511552-0.002048-26.241024-21.252096-47.5136-47.519744-47.5136M66.553856-62.640128C29.800448-62.640128 0-32.843776 0 3.905536c0 36.753408 29.800448 66.54976 66.553856 66.54976 36.749312 0 66.54976-29.796352 66.54976-66.54976 0-36.75136-29.800448-66.545664-66.54976-66.545664M66.553856 317.446144C29.800448 317.446144 0 347.24864 0 383.993856c0 36.755456 29.800448 66.551808 66.553856 66.551808 36.749312 0 66.54976-29.796352 66.54976-66.551808 0-36.745216-29.800448-66.547712-66.54976-66.547712M66.553856 697.540608C29.800448 697.540608 0 727.33696 0 764.090368c0 36.753408 29.800448 66.551808 66.553856 66.551808 36.749312 0 66.54976-29.796352 66.54976-66.551808 0-36.753408-29.800448-66.54976-66.54976-66.54976M258.537472 51.419136h716.443648c26.269696 0 47.519744-21.252096 47.519744-47.5136s-21.250048-47.5136-47.519744-47.5136H258.537472c-26.259456 0-47.511552 21.252096-47.511552 47.5136 0 26.261504 21.250048 47.5136 47.511552 47.5136M258.537472 3.907584z"  horiz-adv-x="1024" />

    
    <glyph glyph-name="tupian" unicode="&#58910;" d="M846.309 833.276H177.805c-62.263 0-112.737-50.474-112.737-112.737v-669.504c0-62.263 50.474-112.737 112.737-112.737h668.503c62.263 0 112.737 50.474 112.737 112.737V720.539c0.001 62.263-50.473 112.737-112.736 112.737z m-649.41-62.666h630.316c39.24 0 71.165-31.924 71.165-71.165v-130.529c-143.468-5.03-277.551-63.167-379.453-165.068-47.755-47.756-85.875-102.593-113.454-162.137-79.811 67.708-195.35 72.049-279.739 13.016V699.445c0 39.241 31.924 71.165 71.165 71.165z m-71.165-701.481V172.074c73.163 71.031 177.056 70.958 250.12-0.234-17.875-65.981-22.392-99.147-22.392-167.777 0-2.125 0.329-4.174 0.934-6.1H196.899c-39.241 0.001-71.165 31.925-71.165 71.166z m701.481-71.165H415.194c0.605 1.926 0.934 3.974 0.934 6.1 0 140.24 53.535 265.009 152.556 364.03 94.219 94.219 197.094 130.122 329.697 135.132v-434.097c-0.001-39.241-31.925-71.165-71.166-71.165zM321.267 457.12c69.928 0 126.82 56.89 126.82 126.82s-56.89 126.82-126.82 126.82-126.82-56.89-126.82-126.82 56.891-126.82 126.82-126.82z m0 191.615c35.728 0 64.796-29.067 64.796-64.796s-29.067-64.796-64.796-64.796-64.796 29.067-64.796 64.796 29.067 64.796 64.796 64.796z"  horiz-adv-x="1024" />

    
    <glyph glyph-name="commodity-yihangliangge" unicode="&#59132;" d="M431.4368 335.5136V725.7856c0 20.5312-16.3328 37.1712-36.5312 37.1712H193.3056c-20.1728 0-36.608-16.64-36.608-37.1712v-454.0928c0-20.48 16.4352-37.12 36.608-37.12h201.6c20.224 0 36.5312 16.64 36.5312 37.12v63.8208z m435.2 0V725.7856c0 20.5312-16.3328 37.1712-36.5312 37.1712h-201.6c-20.1728 0-36.608-16.64-36.608-37.1712v-454.0928c0-20.48 16.4352-37.12 36.608-37.12h201.6c20.224 0 36.5312 16.64 36.5312 37.12v63.8208zM485.76 730.1376l-0.0512-394.0608 0.0512-0.3584v-68.352c0-48.5376-38.8096-88.0128-86.6304-88.0128H189.0048C141.2608 179.3536 102.4 218.8288 102.4 267.3664V730.1376c0 48.5376 38.8608 88.064 86.6048 88.064h210.1248c47.8208 0 86.6304-39.5264 86.6304-88.064z m435.2 0l-0.0512-394.0608 0.0512-0.3584v-68.352c0-48.5376-38.8096-88.0128-86.6304-88.0128h-210.1248c-47.744 0-86.6048 39.4752-86.6048 88.0128V730.1376c0 48.5376 38.8608 88.064 86.6048 88.064h210.1248c47.8208 0 86.6304-39.5264 86.6304-88.064zM128 25.6h332.8a25.6 25.6 0 1 0 0-51.2H128a25.6 25.6 0 0 0 0 51.2z m435.2 0h332.8a25.6 25.6 0 1 0 0-51.2H563.2a25.6 25.6 0 0 0 0 51.2zM183.3984 296.704l36.7872 50.2528a25.6 25.6 0 0 0 35.456 5.76l31.744-22.528a25.6 25.6 0 0 1 34.0992 4.0192l43.2128 49.536a25.6 25.6 0 0 0 44.9024-16.8192V281.6a25.6 25.6 0 0 0-25.6-25.6H204.0576a25.6 25.6 0 0 0-20.6592 40.704z m435.2 0l36.7872 50.2528a25.6 25.6 0 0 0 35.456 5.76l31.744-22.528a25.6 25.6 0 0 1 34.0992 4.0192l43.2128 49.536a25.6 25.6 0 0 0 44.9024-16.8192V281.6a25.6 25.6 0 0 0-25.6-25.6h-179.9424a25.6 25.6 0 0 0-20.6592 40.704z m-214.4256 313.1392c0-28.2368-22.9888-51.2-51.2256-51.2-28.2112 0-51.2 22.9632-51.2 51.2s22.9888 51.2 51.2 51.2c28.2368 0 51.2-22.9632 51.2-51.2z m440.6272 0c0-28.2368-22.9888-51.2-51.2-51.2-28.2368 0-51.2 22.9632-51.2 51.2s22.9632 51.2 51.2 51.2c28.2112 0 51.2-22.9632 51.2-51.2z"  horiz-adv-x="1024" />

    
    <glyph glyph-name="commodity-xiangxiliebiao" unicode="&#59133;" d="M866.6368 565.9136V725.7856c0 20.5312-16.3328 37.1712-36.5312 37.1712H193.3056c-20.1728 0-36.608-16.64-36.608-37.1712v-223.6928c0-20.48 16.4352-37.12 36.608-37.12h636.8c20.224 0 36.5312 16.64 36.5312 37.12v63.8208z m54.3232 164.224l-0.0512-163.6608 0.0512-0.3584v-68.352c0-48.5376-38.8096-88.0128-86.6304-88.0128H189.0048C141.2608 409.7536 102.4 449.2288 102.4 497.7664V730.1376c0 48.5376 38.8608 88.064 86.6048 88.064h645.3248c47.8208 0 86.6304-39.5264 86.6304-88.064zM819.2 609.8432c0-28.2368-22.9888-51.2-51.2-51.2-28.2368 0-51.2 22.9632-51.2 51.2s22.9632 51.2 51.2 51.2c28.2112 0 51.2-22.9632 51.2-51.2z m47.4368-503.7056V265.984c0 20.5056-16.3328 37.1712-36.5312 37.1712H193.3056c-20.1728 0-36.608-16.64-36.608-37.1712v-223.6928c0-20.48 16.4352-37.12 36.608-37.12h636.8c20.224 0 36.5312 16.64 36.5312 37.12v63.8208z m54.3232 164.1984l-0.0512-163.6608 0.0512-0.3328v-68.352c0-48.5632-38.8096-88.064-86.6304-88.064H189.0048C141.2608-50.048 102.4-10.5472 102.4 38.016V270.336C102.4 318.8736 141.2608 358.4 189.0048 358.4h645.3248c47.8208 0 86.6304-39.5264 86.6304-88.064zM819.2 150.0672c0-28.2624-22.9888-51.2-51.2-51.2-28.2368 0-51.2 22.9376-51.2 51.2 0 28.2112 22.9632 51.2 51.2 51.2 28.2112 0 51.2-22.9888 51.2-51.2zM209.408 92.032l60.8512 82.2272a25.6 25.6 0 0 0 35.3024 5.7088l53.3504-37.4784a25.6 25.6 0 0 1 33.92 4.0192l74.368 84.3008a25.6 25.6 0 0 0 44.8-16.9216V76.8a25.6 25.6 0 0 0-25.6-25.6H229.9904a25.6 25.6 0 0 0-20.5824 40.832z m0 460.8l60.8512 82.2272a25.6 25.6 0 0 0 35.3024 5.7088l53.3504-37.4784a25.6 25.6 0 0 1 33.92 4.0192l74.368 84.3008a25.6 25.6 0 0 0 44.8-16.9216V537.6a25.6 25.6 0 0 0-25.6-25.6H229.9904a25.6 25.6 0 0 0-20.5824 40.832z"  horiz-adv-x="1024" />

    
    <glyph glyph-name="datumoshi" unicode="&#58905;" d="M851.968 33.28H208.896c-45.056 0-81.92 36.864-81.92 81.92v537.6c0 45.056 36.864 81.92 81.92 81.92h643.072c45.056 0 81.92-36.864 81.92-81.92v-537.6c0-45.056-36.864-81.92-81.92-81.92zM421.888 400.896l-51.2-91.136c-16.896-30.208 1.024-71.168 31.744-71.168h312.32c30.208 0 48.64 40.96 31.232 71.168L675.84 435.2c-13.824 24.576-43.52 27.136-59.904 4.608l-26.624-36.352-25.088-33.792c-15.36-20.48-42.496-20.48-57.344 1.024l-24.064 34.304c-16.384 23.04-46.592 20.992-60.928-4.096zM344.064 493.568m-35.84 0a35.84 35.84 0 1 1 71.68 0 35.84 35.84 0 1 1-71.68 0Z"  horiz-adv-x="1024" />

    
    <glyph glyph-name="yihangsange" unicode="&#59014;" d="M85.333333 725.333333h203.178667v-682.666666H85.333333zM410.410667 725.333333h203.178666v-682.666666H410.410667zM735.488 725.333333H938.666667v-682.666666h-203.178667z"  horiz-adv-x="1024" />

    
    <glyph glyph-name="icon_shangpintu_yidaliangxiao" unicode="&#58908;" d="M102.4 793.6h819.2c30.72 0 51.2-20.48 51.2-51.2v-665.6c0-30.72-20.48-51.2-51.2-51.2H102.4c-30.72 0-51.2 20.48-51.2 51.2V742.4c0 30.72 20.48 51.2 51.2 51.2z m76.8-102.4c-15.36 0-25.6-10.24-25.6-25.6v-256c0-15.36 10.24-25.6 25.6-25.6h665.6c15.36 0 25.6 10.24 25.6 25.6v256c0 15.36-10.24 25.6-25.6 25.6h-665.6z m0-358.4c-15.36 0-25.6-10.24-25.6-25.6v-153.6c0-15.36 10.24-25.6 25.6-25.6H460.8c15.36 0 25.6 10.24 25.6 25.6v153.6c0 15.36-10.24 25.6-25.6 25.6H179.2z m384 0c-15.36 0-25.6-10.24-25.6-25.6v-153.6c0-15.36 10.24-25.6 25.6-25.6h281.6c15.36 0 25.6 10.24 25.6 25.6v153.6c0 15.36-10.24 25.6-25.6 25.6H563.2z"  horiz-adv-x="1024" />

    
    <glyph glyph-name="xuanzemokuai-daohanghengxianghuadong" unicode="&#58904;" d="M1407.808-21.312V792.896c0 28.16-28.288 102.272-104.32 102.272H104.32C18.432 895.168 0 821.12 0 792.96v-814.144c0-42.624 36.48-105.6 104.384-105.6l1199.104 1.6c64.64 0 104.32 50.112 104.32 103.936z m-1305.024-4.8V794.496h1201.984v-820.544H102.784zM192 512h256v-256H192zM512 512h256v-256H512zM832 512h256v-256h-256zM1152 512h64v-256h-64z"  horiz-adv-x="1408" />

    
    <glyph glyph-name="yidaliangxiao" unicode="&#58905;" d="M833.536 33.28H190.464c-45.056 0-81.92 36.864-81.92 81.92v537.6c0 45.056 36.864 81.92 81.92 81.92h643.072c45.056 0 81.92-36.864 81.92-81.92v-537.6c0-45.056-36.864-81.92-81.92-81.92zM173.99808 322.99008v287.232h675.84v-287.232zM173.85984 135.15264v146.432h315.392v-146.432zM534.51264 134.94784v146.432h315.392v-146.432z"  horiz-adv-x="1024" />

    
    <glyph glyph-name="fuwenben" unicode="&#58952;" d="M997.376 24.576v-64c0-36.352-29.184-65.536-65.536-65.536h-61.952c-36.352 0-65.536 29.184-65.536 65.536v1.024H217.088v-1.024c0-36.352-29.184-65.536-65.536-65.536H89.6c-36.352 0-65.536 29.184-65.536 65.536v64c0 35.84 28.16 64.512 64 65.536V675.328c-36.352 1.024-64.512 29.696-64.512 65.536V804.864C23.552 841.216 52.736 870.4 89.088 870.4h62.464c35.84 0 64.512-28.16 65.536-64H803.84c1.024 35.328 29.696 64 65.536 64H931.84c36.352 0 65.536-29.184 65.536-65.536v-64c0-36.352-28.672-65.024-64.512-65.536v-584.704c35.84-1.024 64.512-30.208 64.512-66.048M803.84 740.864v1.024H217.088v-1.024c0-36.352-28.672-65.024-64.512-65.536v-584.704c35.328-0.512 63.488-28.672 64.512-64H803.84c1.024 34.816 28.672 62.976 63.488 63.488V675.328c-34.816 1.024-63.488 29.696-63.488 65.536m-66.048-195.584h-130.56V220.16h64.512v-64.512H347.648V220.16h65.536V545.28H282.624v-64.512H218.112V610.304h584.704v-129.536h-64.512l-0.512 64.512m0 0z"  horiz-adv-x="1024" />

    
    <glyph glyph-name="yuyin" unicode="&#58901;" d="M496.859161 131.372441c108.168582 0 196.164728 88.010473 196.164728 196.164728L693.02389 551.725138c0 108.154255-87.99717 196.164728-196.164728 196.164728s-196.164728-88.010473-196.164728-196.164728l0-224.188992C300.694433 219.382914 388.69058 131.372441 496.859161 131.372441zM356.741937 551.725138c0 77.255525 62.862723 140.118248 140.118248 140.118248s140.118248-62.862723 140.118248-140.118248l0-224.188992c0-77.255525-62.862723-140.118248-140.118248-140.118248s-140.118248 62.862723-140.118248 140.118248L356.741937 551.725138zM833.142138 327.53717l-56.047504 0c0-154.513096-125.70498-280.235472-280.235472-280.235472-154.527422 0-280.235472 125.722376-280.235472 280.235472l-56.047504 0c0-175.968757 135.930879-320.547597 308.258713-334.859557l0-85.494163L301.131385-92.81655l0-56.047504 391.892505 0 0 56.047504L524.885472-92.81655l0 85.494163C697.211259 6.989573 833.142138 151.568413 833.142138 327.53717z"  horiz-adv-x="1024" />

    
    <glyph glyph-name="jifenzhang" unicode="&#58882;" d="M971.219 98.338c0 0-90.867-18.184-182.799-37.065-61.404-68.455-122.462-136.564-122.462-136.564l-131.633 224.447c-7.407-0.361-14.828-1.059-22.407-1.059-7.587 0-14.823 0.698-22.415 1.059l-131.448-224.447c0 0-61.062 68.109-122.462 136.564-92.108 18.881-182.813 37.065-182.813 37.065l143.106 244.212c-23.12 46.22-36.342 97.751-36.342 152.804 0 191.63 157.741 347.262 352.374 347.262 194.806 0 352.545-155.632 352.545-347.262 0-55.053-13.404-106.584-36.337-152.804l143.093-244.212zM672.667 28.808c0 0 44.11 41.83 85.574 82.054 58.759 16.758 118.049 33.7 118.049 33.7l-83.289 141.872c-47.811-62.459-116.632-108.342-196.215-127.755l75.882-129.87zM147.72 144.562c0 0 59.29-16.942 118.048-33.7 41.469-40.223 85.398-82.054 85.398-82.054l76.058 129.87c-79.583 19.414-148.405 65.296-196.397 127.76l-83.108-141.877zM511.918 744.176c-135.439 0-245.205-110.074-245.205-245.661 0-135.74 109.766-245.803 245.205-245.803 135.431 0 245.206 110.063 245.206 245.803-0 135.587-109.774 245.661-245.206 245.661v0zM511.917 336.469c-89.338 0-161.887 72.405-161.887 161.891 0 89.475 72.549 161.88 161.887 161.88 89.475 0 161.88-72.405 161.88-161.88 0-89.486-72.403-161.891-161.88-161.891v0zM511.918 641.815z"  horiz-adv-x="1024" />

    
    <glyph glyph-name="yunying" unicode="&#58945;" d="M512 896c-282.624 0-512-229.376-512-512s229.376-512 512-512S1024 101.376 1024 384s-229.376 512-512 512z m237.056-310.784c32.256 0 58.88-26.112 58.88-58.88 0-32.256-26.112-58.88-58.88-58.88-32.256 0-58.88 26.624-58.88 58.88 0 32.768 26.624 58.88 58.88 58.88zM512 691.2c58.88 0 105.984-47.616 105.984-105.984 0-58.368-47.104-105.984-105.984-105.984-58.368 0-105.984 47.104-105.984 105.984 0 58.368 47.104 105.984 105.984 105.984zM274.944 595.456c32.256 0 58.368-26.112 58.368-58.88 0-32.256-26.112-58.88-58.368-58.88-32.256 0-58.88 26.112-58.88 58.88 0 32.256 26.624 58.88 58.88 58.88z m0-355.84c-68.096 0-123.392 7.168-123.392 15.872l6.144 5.632 28.672 24.576-20.992 23.552c0 76.288 49.152 137.728 110.08 137.728 28.672 0 54.784-14.336 74.752-37.376-40.96-40.448-68.096-101.376-73.728-169.472-0.512-0.512-1.024-0.512-1.536-0.512z m458.752-134.144c0-15.872-99.328-28.672-222.208-28.672s-222.208 13.312-222.208 28.672l10.752 8.704 51.712 45.056-38.4 42.496c0 8.192 0.512 16.384 1.024 24.064 5.12 68.608 32.768 129.024 73.216 169.984 34.304 34.304 77.312 54.784 124.416 54.784 47.104 0 90.112-19.968 124.416-54.272 40.96-40.96 68.608-101.376 73.728-169.984 0.512-7.68 1.024-15.872 1.024-24.064h-1.024l-38.4-42.496 53.248-46.08 8.704-7.168v-1.024z m138.24 155.648c0-8.704-54.784-16.384-123.392-16.384-5.632 69.12-33.28 129.536-73.728 169.984 19.456 23.04 45.568 37.376 74.752 37.376 60.928 0 110.08-61.952 110.08-138.24h-0.512l-21.504-23.552 29.696-25.6 4.608-3.584z"  horiz-adv-x="1024" />

    
    <glyph glyph-name="shipin" unicode="&#59481;" d="M399.36 226.986667l256 129.706666c23.893333 10.24 23.893333 44.373333 0 58.026667l-256 129.706667c-20.48 10.24-47.786667-3.413333-47.786667-27.306667v-256c0-30.72 23.893333-44.373333 47.786667-34.133333zM928.426667 769.706667H95.573333C44.373333 769.706667 0 725.333333 0 674.133333v-576.853333c0-54.613333 44.373333-95.573333 95.573333-95.573333h832.853334c51.2 0 95.573333 44.373333 95.573333 95.573333V674.133333c0 51.2-44.373333 95.573333-95.573333 95.573334zM191.146667 93.866667c0-17.066667-13.653333-34.133333-30.72-34.133334H95.573333c-17.066667 0-30.72 13.653333-30.72 34.133334v64.853333c0 17.066667 13.653333 34.133333 30.72 34.133333h64.853334c17.066667 0 30.72-13.653333 30.72-34.133333v-64.853333z m0 259.413333c0-17.066667-13.653333-34.133333-30.72-34.133333H95.573333c-17.066667 0-30.72 13.653333-30.72 34.133333V418.133333c0 17.066667 13.653333 34.133333 30.72 34.133334h64.853334c17.066667 0 30.72-13.653333 30.72-34.133334v-64.853333z m0 256c0-17.066667-13.653333-34.133333-30.72-34.133333H95.573333c-17.066667 0-30.72 13.653333-30.72 34.133333V674.133333c0 17.066667 13.653333 34.133333 30.72 34.133334h64.853334c17.066667 0 30.72-13.653333 30.72-34.133334v-64.853333z m576.853333-546.133333h-512V704.853333h512v-641.706666z m191.146667 30.72c0-17.066667-13.653333-34.133333-30.72-34.133334h-64.853334c-17.066667 0-30.72 13.653333-30.72 34.133334v64.853333c0 17.066667 13.653333 34.133333 30.72 34.133333h64.853334c17.066667 0 30.72-13.653333 30.72-34.133333v-64.853333z m0 259.413333c0-17.066667-13.653333-34.133333-30.72-34.133333h-64.853334c-17.066667 0-30.72 13.653333-30.72 34.133333V418.133333c0 17.066667 13.653333 34.133333 30.72 34.133334h64.853334c17.066667 0 30.72-13.653333 30.72-34.133334v-64.853333z m0 256c0-17.066667-13.653333-34.133333-30.72-34.133333h-64.853334c-17.066667 0-30.72 13.653333-30.72 34.133333V674.133333c0 17.066667 13.653333 34.133333 30.72 34.133334h64.853334c17.066667 0 30.72-13.653333 30.72-34.133334v-64.853333z"  horiz-adv-x="1024" />

    
    <glyph glyph-name="zidingyimokuai" unicode="&#59044;" d="M46.545455 477.090909h372.363636V849.454545H46.545455v-372.363636zM0 849.687273C0 875.287273 21.224727 896 46.312727 896h372.829091c25.6 0 46.312727-21.224727 46.312727-46.312727v-372.829091c0-25.6-21.224727-46.312727-46.312727-46.312727H46.312727C20.712727 430.545455 0 451.770182 0 476.858182V849.687273z m0-558.545455c0 25.6 21.224727 46.312727 46.312727 46.312727h372.829091c25.6 0 46.312727-21.224727 46.312727-46.312727v-372.829091c0-25.6-21.224727-46.312727-46.312727-46.312727H46.312727C20.712727-128 0-106.775273 0-81.687273v372.829091zM46.545455-81.454545h372.363636v372.363636H46.545455v-372.363636zM558.545455 849.687273c0 25.6 21.224727 46.312727 46.312727 46.312727h372.829091c25.6 0 46.312727-21.224727 46.312727-46.312727v-372.829091c0-25.6-21.224727-46.312727-46.312727-46.312727h-372.829091c-25.6 0-46.312727 21.224727-46.312727 46.312727V849.687273zM605.090909 477.090909h372.363636V849.454545h-372.363636v-372.363636z m-46.545454-139.636364h93.090909v-46.545454h-93.090909v46.545454z m186.181818 0h93.090909v-46.545454h-93.090909v46.545454z m186.181818 0h93.090909v-46.545454h-93.090909v46.545454z m-372.363636-418.90909h93.090909v-46.545455h-93.090909v46.545455z m186.181818 0h93.090909v-46.545455h-93.090909v46.545455z m186.181818 0h93.090909v-46.545455h-93.090909v46.545455z m-372.363636 325.818181h46.545454v-93.090909h-46.545454v93.090909z m0-139.636363h46.545454v-93.090909h-46.545454v93.090909z m418.90909 93.090909h46.545455v-93.090909h-46.545455v93.090909z m0-139.636364h46.545455v-93.090909h-46.545455v93.090909z"  horiz-adv-x="1024" />

    
    <glyph glyph-name="laoshi" unicode="&#58967;" d="M955.013565-102.13287l-9.104695-17.318956H66.782609l0.534261 26.401391c1.046261 49.797565 6.277565 117.359304 23.81913 183.518609 18.18713 68.207304 49.463652 135.034435 102.800696 180.936348l7.568695 6.433391 9.928348-0.044522 116.602435 1.135305-0.044522-53.782261-106.674087 0.912695c-39.958261-37.910261-64.512-92.382609-79.426782-148.569043-13.512348-50.576696-19.144348-102.310957-21.281392-145.14087l782.180174 0.178087c1.357913 48.90713-13.000348 106.718609-30.697739 160.946087-17.764174 54.694957-43.208348 101.286957-73.794783 133.520696h-121.900521V278.928696h139.330782l10.707479-3.494957c40.781913-37.910261 73.97287-99.661913 95.565913-166.177391 22.661565-69.609739 39.579826-151.418435 33.012869-211.389218z m-435.400348 69.298087l-69.676521 51.934609 45.100521 180.023652-17.051826 27.826087 1.335652 28.449392c32.567652 1.758609 42.073043 1.758609 74.662957 0l1.335652-28.471653-17.074087-27.826087 51.044174-180.001391-69.676522-51.934609z m201.638957 522.017392c-17.875478-61.306435-42.22887-107.208348-74.885565-141.200696-35.172174-36.685913-79.36-58.657391-134.656-70.188522l-4.496696-0.890434-4.452174 0.690086c-49.953391 8.325565-94.096696 29.362087-130.782609 66.404174-33.658435 33.970087-60.571826 81.207652-79.293217 144.11687-15.760696 8.45913-27.514435 22.505739-35.483826 41.405217-8.770783 20.72487-12.844522 47.86087-12.310261 79.961044l0.178087 12.399304 10.48487 6.967652a109.30087 109.30087 0 0 0 10.640695 6.411131c-16.005565 96.389565-11.842783 178.554435 47.059479 233.293913 46.83687 33.792 129.113043 10.685217 204.510608 21.882435 214.973217 31.944348 213.526261-76.065391 234.963478-259.161044 1.246609-0.75687 2.515478-1.513739 3.784348-2.404174l10.462609-6.967652 0.222609-12.421565c0.512-31.454609-3.33913-58.10087-11.798261-78.714435-7.635478-18.721391-18.988522-32.901565-34.148174-41.583304z m-25.800348 96.389565l-3.272348 10.885565-6.989913-0.445217-4.006956 20.902956c-3.116522 16.294957-7.880348 100.685913-14.06887 114.554435-18.632348-7.791304-39.490783 6.522435-58.323478 17.207652l-9.572174-29.517913-15.382261 2.003478 2.048 17.986783-16.250435-25.666783-14.447304 2.827131 14.202435 38.110609c-76.04313-52.246261-207.070609-49.597217-224.389565-26.245566-2.715826-3.31687-3.227826-7.991652-4.630261-12.109913-3.584-14.113391-7.590957-101.732174-11.174957-115.712l-0.957217-5.12-0.333913 0.044522a183.941565 183.941565 0 0 0-2.226087-7.479652c-6.522435 4.229565-19.767652 0.890435-31.588174-0.890435 1.113043-15.560348 3.762087-28.672 8.125217-38.912 4.34087-10.395826 10.329043-17.118609 17.875478-19.389217l12.911305-3.962435 3.517217-12.8c16.584348-60.282435 40.448-104.136348 70.344348-134.366609 27.870609-28.115478 61.417739-44.588522 99.461565-51.667478 43.230609 9.683478 77.601391 27.091478 104.69287 55.251478 28.694261 29.874087 50.109217 72.503652 66.137043 131.31687l3.339131 12.243478 12.154435 4.229565c7.41287 2.537739 13.267478 9.394087 17.541565 19.812174 4.140522 10.173217 6.767304 22.973217 7.835826 38.177391a212.368696 212.368696 0 0 1-22.572522-1.29113z"  horiz-adv-x="1024" />

    
    <glyph glyph-name="youhuiquan" unicode="&#58898;" d="M890.781737 297.484929v-124.161293c0-33.278707-26.395152-60.251798-58.967919-60.251798H192.139636c-32.536566 0.019394-58.930424 26.971798-58.949818 60.231111V297.252202c23.069737 4.918303 45.137455 16.85204 57.475879 36.459313 8.67297 13.785212 17.289051 32.563717 17.28905 50.16695 0 17.563152-8.012283 33.932929-16.70206 47.716848-12.356525 19.626667-35.011232 33.952323-58.079677 38.887434v123.507071C133.228606 627.268525 159.622465 654.222222 192.15903 654.222222h639.653495c32.535273 0 58.948525-26.953697 58.967919-60.231111V470.252606c-23.258505-5.263515-43.040323-20.089535-55.113697-40.256646-8.066586-13.438707-18.629818-29.248646-18.667313-46.117495 0-16.889535 10.600727-32.678788 18.667313-46.138182 12.092768-20.146424 31.856485-34.972444 55.11499-40.255354zM853.315232 614.968889H386.437172v-56.587636h-44.410829V614.968889H170.657616v-103.321859c42.417131-26.086141 76.74699-73.610343 76.74699-127.749171 0-54.176323-34.349253-101.683717-76.74699-127.767273v-103.784727h171.368727v56.335515h44.410829v-56.335515H853.333333v109.258989c-41.81204 26.220606-76.899556 68.578263-76.899555 122.312405 0 53.695354 35.048727 96.033616 76.881454 122.236121V614.968889zM674.332444 364.944808h-58.09907c-2.305293 0-4.498101-0.634828-6.652121-1.966545-2.097131-1.157172-3.022869-0.076283-3.022869-2.448808 0-2.583273 0.037495-5.051475 0.341333-7.845495 0.320646-2.816 0.41503-2.738424 0.41503-4.473536 0-3.683556 3.136646-5.012687 8.899233-3.683555h57.285818c5.877657 0 8.786747-2.795313 8.786747-8.426021v-18.681535c0-6.034101-4.30804-9.157818-12.488404-9.157818h-17.420929c-4.591192 0-9.353051-0.21204-14.47305-0.424081-4.911838-0.424081-9.616808-0.519758-13.716687-0.519757h-7.972202c-5.157495 0-7.879111-3.123717-7.879111-9.369859v-43.053253c0-3.201293-2.399677-4.742465-7.104647-4.742464h-20.631273c-7.633455 0-11.450182 3.373253-11.450181 10.140444 0 2.584566 0.209455 7.809293 0.455111 15.908202 0.41503 8.000646 0.208162 19.568485-0.416324 22.692202 0 3.046141-0.34004 5.108364-0.906343 6.034101-0.510707 0.906343-2.190222 1.31103-5.253172 1.311031h-57.191434c-7.670949 0-11.487677 4.01196-11.487677 12.108282 0 1.735111-0.151273 4.124444-0.831353 6.997334-0.605091 2.699636-0.605091 3.741737 0 6.941737 0.680081 3.065535 1.568323 5.842747 2.684121 8.42602 1.22699 2.371232 3.532283 3.315071 7.00897 2.699637h63.313454c1.228283 0 1.73899 1.523071 1.73899 4.741171v12.147071c0 3.104323-3.532283 4.646788-10.485657 4.646788h-55.414949c-2.399677 0-4.402424 0.098263-6.19701 0.365899-1.833374 0.310303-2.684121 2.045414-2.684121 5.033374v9.523717c0 4.839434-0.302545 8.541091-0.868849 11.106263-1.208889 3.683556-0.302545 6.80598 2.570344 9.157818 2.947879 2.584566 6.839596 3.682263 11.486383 3.682262 4.742465-0.636121 9.920646-0.731798 15.605657-0.42408 5.518222 0.327111 6.312081 0.424081 9.239273 0.42408h10.467555c3.55297 0 4.742465 1.31103 3.55297 3.683556-1.135192 1.369212-1.701495 6.014707-7.539071 13.89899-5.990141 8.270869-15.078141 21.324283-21.520808 29.962343-7.670949 10.585212-16.570182 22.017293-26.564525 34.337616-4.081778 6.786586-3.212929 12.435394 2.663434 16.638707 2.910384 1.890263 5.990141 4.222707 9.201778 7.095596 3.268525 2.737131 7.029657 5.359192 11.148929 7.808 5.837576 3.721051 11.411394 0.365899 16.721455-10.101656 1.851475-2.584566 5.157495-7.01802 10.220606-13.553778 5.026909-6.574545 10.183111-13.304242 15.400081-20.860121 5.232485-7.518384 10.276202-14.113616 15.039353-19.858101 4.760566-5.957818 7.329616-9.581899 8.029091-10.797253 1.133899-2.468202 3.268525-4.009374 6.498263-4.627394 3.269818-0.636121 5.575111 0.404687 6.689616 2.796606 0.510707 1.31103 2.986667 5.108364 7.461495 11.68291a901.647515 901.647515 0 0 1 14.586828 21.690181c5.328162 8.039434 10.334384 15.539717 14.982465 22.787879 4.800646 7.076202 7.727838 11.587232 8.899232 13.380525 2.911677 4.376566 5.518222 7.095596 7.425293 8.309657 2.097131 1.252848 5.479434 0.886949 10.278788-0.88695 2.909091-1.214061 6.198303-3.065535 9.561212-5.494949 3.608566-2.50699 6.026343-4.415354 7.103354-5.688889 6.499556-6.824081 8.331636-12.686222 5.328161-17.524364-1.114505-1.947152-4.402424-6.593939-9.618101-14.016646-5.515636-7.364525-11.089455-15.211313-17.286464-23.637333-6.291394-8.327758-11.770828-20.937697-16.75895-28.494869-5.025616-7.424-7.784727-11.857455-8.50101-12.937051-1.569616-3.065535-0.964525-4.91701 2.209616-5.650101 3.307313-0.636121 6.499556-0.943838 9.296162-0.943838h36.011959c2.852202 0 5.364364-1.09899 7.461495-3.701656 2.097131-2.468202 3.118545-4.82004 3.118546-7.307637v-20.454141c0.05301-4.362343-2.989253-6.406465-8.751839-6.406465zM342.043152 498.266505h44.32808v-93.952l-44.32808 0.019394v93.932606z m44.309979-246.725818h-44.326788v111.323798h44.326788v-111.323798z"  horiz-adv-x="1024" />

    
    <glyph glyph-name="kuaisuzhangfen" unicode="&#58913;" d="M512 896C229.220174 896 0 666.779826 0 384s229.220174-512 512-512 512 229.220174 512 512S794.779826 896 512 896z m253.773913-648.525913h-66.782609v-66.782609a22.26087 22.26087 0 1 0-44.521739 0v66.782609h-66.782608a22.26087 22.26087 0 1 0 0 44.521739h66.782608v66.782609a22.26087 22.26087 0 1 0 44.521739 0v-66.782609h66.782609a22.26087 22.26087 0 1 0 0-44.521739z m-20.457739 90.178783l-1.068522-1.135305H743.513043v22.26087a66.782609 66.782609 0 0 1-133.565217 0v-22.26087h-22.260869a66.782609 66.782609 0 0 1 0-133.565217h22.260869v-6.077218c-23.574261-24.30887-45.612522-46.970435-62.664348-64.467478a49.129739 49.129739 0 0 0-35.261217-15.048348 49.196522 49.196522 0 0 0-35.305739 15.09287 139228.004174 139228.004174 0 0 0-191.109565 197.008696c-27.492174 28.382609-46.525217 61.462261-53.270261 101.487304-11.731478 69.654261 20.057043 139.442087 79.805217 174.836869a161.680696 161.680696 0 0 0 82.632348 22.928696c40.982261 0 81.497043-15.872 113.396869-46.703304 1.001739-0.934957 2.048-1.78087 2.048-1.78087 16.205913 10.841043 30.742261 22.728348 47.014957 31.098435a155.069217 155.069217 0 0 0 71.43513 17.452522c78.157913 0 151.885913-58.768696 163.617392-144.962783 7.613217-56.364522-8.926609-105.961739-46.970435-146.164869z"  horiz-adv-x="1024" />

    
    <glyph glyph-name="pintuan-copy" unicode="&#58951;" d="M1248.234943-77.02871700000003L1086.89849 735.6074590000001c-3.194781 15.973906-19.822165 27.518684-39.499113 27.518684h-201.634263l-20.62086 105.209956C822.022081 884.382614 805.394697 896 785.64514 896h-583.773665c-19.749557 0-36.304332-11.617386-39.499114-27.663901L0.963299 48.22122999999999a43.565199 43.565199 0 0 1 8.567823-36.304333 42.330852 42.330852 0 0 1 32.964333-15.102602h235.106857l-14.521733-74.060838a42.98433 42.98433 0 0 1 8.422605-35.868681 42.40346 42.40346 0 0 1 32.964334-14.739559h902.235269a42.40346 42.40346 0 0 1 33.036943 15.102603 42.98433 42.98433 0 0 1 8.495213 35.723463z m-1205.303836 113.1243a4.066085 4.066085 0 0 0-2.831738 0.871303 4.792172 4.792172 0 0 0-0.363043 3.703042L199.911041 856.646104a8.71304 8.71304 0 0 0 1.960434 0h583.701056a8.71304 8.71304 0 0 0 1.960434 0l18.369992-93.592569H463.69832c-19.749557 0-36.304332-11.544778-39.499114-27.518684l-138.827767-699.439268H42.640673z m1166.966461-124.233426a3.920868 3.920868 0 0 0-2.904346-0.871304H304.467518a3.920868 3.920868 0 0 0-2.831738 0.871304 4.429129 4.429129 0 0 0 0 3.485216l16.699993 84.153442h550.88194v35.142594H324.943162l136.794724 689.128838a9.003474 9.003474 0 0 0 2.033043 0h583.701056a9.003474 9.003474 0 0 0 2.033043 0l160.39254-808.061831a4.429129 4.429129 0 0 0-0.363043-3.77565zM941.245509 652.325321h-0.508261a31.294335 31.294335 0 0 1-30.786074-31.729987l2.686521-180.650358c1.016521-67.235624-63.387364-122.92647-143.474722-124.088208a159.303411 159.303411 0 0 0-104.919521 35.505637 111.962561 111.962561 0 0 0-42.185634 84.226051l-2.759129 180.650358a31.294335 31.294335 0 1 1-62.516061-0.943912l2.686521-180.650358a173.607318 173.607318 0 0 1 64.476494-130.695597 220.730341 220.730341 0 0 1 142.530809-50.317805h3.630434c114.576473 1.742608 206.571651 85.89605 205.046869 187.548182l-2.686521 180.359923a31.294335 31.294335 0 0 1-31.221725 30.786074zM887.006836 36.53123400000004h39.063462v-39.063461h-39.063462z"  horiz-adv-x="1249" />

    
    <glyph glyph-name="miaosha" unicode="&#58887;" d="M789.10976 677.25824c64.8704-62.57664 109.28128-147.15392 120.4736-243.68128 25.66656-221.2864-132.92032-421.48352-354.21184-447.14496-109.02016-12.65152-212.86912 19.49696-293.30944 81.75616l-28.55936-33.00352c89.3696-69.9392 205.24032-106.10176 326.87616-91.99616 245.1712 28.43648 420.86912 250.24 392.43264 495.4112-12.50304 107.79136-62.39232 202.13248-135.18848 271.62624l-28.51328-32.96768zM229.2224 38.5792l27.10016 34.0992c-79.76448 64.07168-135.38816 158.28992-148.10112 267.96032-25.67168 221.29152 132.9152 421.48864 354.21696 447.1552 110.14144 12.7744 215.04-20.1216 295.81312-83.64544l27.08992 34.07872C695.81824 808.704 579.52256 845.18912 457.41568 831.0272c-245.17632-28.43136-420.87424-250.22464-392.43776-495.40096 14.10048-121.57952 75.77088-226.05824 164.24448-297.04704zM674.16576 639.80032l-40.28928-0.20992-15.22176-328.11008 31.18592-25.6-75.96032-254.81216 137.74848 273.19808-42.58304 35.84 5.12 299.69408z m0 0M255.45728 135.5264c16.14336 66.37568 27.50464 178.79552 27.50464 307.95264v35.28192h40.66304v-35.28192c0-132.75136-10.76224-249.34912-28.70272-317.52192l-39.46496 9.56928zM358.30784 126.56128V511.65184H260.8384v40.65792h97.46944V605.53216L271.00672 599.552l-3.59424 40.66304 213.4784 14.94528 3.58912-40.65792-85.50912-5.98016v-56.21248H491.0592v-40.65792H398.97088v-385.09056zM443.81696 478.76096h40.66304v-346.22464h-40.66304zM595.10272 640.05632c-4.7872-113.6128-19.73248-210.4832-47.84128-293.00736l-38.272 13.1584c23.80288 69.82656 40.2688 161.38752 44.8512 280.44288l41.26208-0.59392zM747.17184 645.17632l47.23712-285.824-40.66304-6.58432-47.23712 285.83424z"  horiz-adv-x="1024" />

    
    <glyph glyph-name="zhibobofangshexiangjitianxianxianxing" unicode="&#59593;" d="M524.344889 668.444444l77.056 128.398223a28.444444 28.444444 0 1 0 48.753778-29.269334L590.705778 668.444444H739.555556a56.888889 56.888889 0 0 0 56.888888-56.888888v-150.670223l129.877334 62.520889A28.444444 28.444444 0 0 0 967.111111 497.777778v-312.888889a28.444444 28.444444 0 0 0-40.789333-25.656889L796.444444 221.752889V42.666667a56.888889 56.888889 0 0 0-56.888888-56.888889H113.777778a56.888889 56.888889 0 0 0-56.888889 56.888889V611.555556a56.888889 56.888889 0 0 0 56.888889 56.888888h148.878222L203.178667 767.573333a28.444444 28.444444 0 0 0 48.753777 29.297778L329.016889 668.444444h195.328z m16.554667-56.888888a28.444444 28.444444 0 0 0-0.967112 0h-226.531555a28.444444 28.444444 0 0 0-0.967111 0H113.777778v-568.888889h625.777778V611.555556h-198.656zM796.444444 397.511111v-112.384l111.786667-53.816889v220.017778L796.444444 397.511111z m-455.111111-164.522667V449.706667a28.444444 28.444444 0 0 0 42.154667 24.917333l196.977778-108.344889a28.444444 28.444444 0 0 0 0-49.834667l-196.977778-108.373333A28.444444 28.444444 0 0 0 341.333333 233.016889z m56.803556 170.581334v-124.472889l113.152 62.236444-113.152 62.236445z"  horiz-adv-x="1024" />

    
    <glyph glyph-name="zhouqi" unicode="&#59077;" d="M205.824 355.84h87.552v-30.208H205.824v30.208z m314.88 27.648c8.192 0 15.872-2.048 23.04-5.12 26.624 32.768 57.344 61.952 91.136 87.04l25.088-23.552c-24.576-37.376-53.76-70.656-87.552-100.352 5.632-28.672-12.8-56.32-40.96-61.952-28.672-5.632-56.32 12.8-61.952 40.96-3.072 13.824 0 28.672 8.192 40.448-39.424 52.736-72.704 109.568-99.328 169.472l26.624 14.336c38.912-52.224 73.216-106.496 100.864-163.328 4.608 1.024 9.728 2.048 14.848 2.048zM445.44 670.208v-90.112l248.32 142.848-247.808 143.36v-92.16C352.256 760.32 266.24 716.8 199.68 650.24c-82.432-81.92-129.024-194.048-129.024-310.272 0-116.736 46.08-228.352 129.024-310.272 82.432-82.432 194.56-128.512 311.296-128.512 116.736 0 228.864 46.08 311.296 128.512 49.152 49.152 86.528 109.568 107.52 175.616l5.12 15.872-98.816 29.184-5.12-14.848c-16.384-50.176-44.544-95.744-81.92-133.12-62.976-63.488-148.992-98.816-238.592-98.816s-175.104 35.328-238.592 98.816c-63.488 62.976-98.816 148.48-98.816 237.568 0 89.6 35.328 174.592 98.816 237.568 47.616 47.616 108.032 79.36 173.568 92.672z m398.336-280.064c-3.072 21.504-8.704 42.496-15.872 62.976l-5.632 14.848 96.256 35.84 5.632-15.36c10.752-29.696 18.432-60.416 22.528-91.648l2.56-17.408-102.912-3.584-2.56 14.336z m-1.536-111.616c4.096 22.528 6.144 45.056 5.632 67.584l-0.512 15.872 102.912 3.584 0.512-16.384v-9.216c0-29.696-3.072-58.88-8.704-88.064l-3.584-17.408-98.816 29.184 2.56 14.848z m-31.744 216.064c-9.216 17.408-19.456 33.792-31.744 49.664l-9.728 12.8L849.92 620.032l10.24-12.8c17.408-23.04 32.768-47.616 45.568-73.216l7.68-15.872-96.768-35.84-6.144 12.288z m-51.2 72.704l-10.24 10.24c-14.848 14.848-31.232 28.672-49.152 40.448l-14.336 9.728 64.512 80.896 12.8-8.704c23.552-16.384 45.568-35.328 65.536-56.32l12.288-12.8-81.408-63.488zM510.976 41.472v87.04h30.208v-87.04h-30.208z m220.672 87.04l-61.952 61.952 21.504 20.992 61.952-61.952-21.504-20.992z m-438.784 7.168l61.952 61.952 21.504-20.992-61.952-61.952-21.504 20.992zM300.032 573.44l61.952-61.952-20.992-20.992-61.952 61.44 20.992 21.504z m438.784-7.168l-21.504 20.992L655.36 525.312l21.504-20.992 61.952 61.952z m87.552-220.672h-87.552v30.208h87.552v-30.208z"  horiz-adv-x="1024" />

    
    <glyph glyph-name="kecheng" unicode="&#58884;" d="M1096.991556 427.859639c-0.02909-94.143929-3.345314-188.4527 1.21207-282.354216 2.76352-56.73459-17.977428-83.797697-71.9388-96.199601-80.384507-18.462256-160.12904-40.23104-239.282083-63.50279-55.929775-16.445371-110.938376-28.818185-155.649228-77.950669-41.666131-45.78717-119.316207-47.08651-157.452789-7.514837-79.560299 82.527447-186.30976 79.996644-279.871895 116.950246-21.18699 8.348741-44.090272 12.401904-66.246918 18.307111-150.907609 40.20195-125.57049 20.56641-126.772864 175.70172-1.309036 169.893479 0.494525 339.816047-0.969656 509.728919-0.387863 43.906037 7.960878 72.850277 60.332015 65.76209 35.004592-4.71253 53.098379 11.432248 50.024568 46.766523-4.848281 55.755237 26.006182 66.363277 72.472111 61.340457 112.528613-12.140097 223.340934-31.48474 320.655639-93.503956 31.969568-20.401568 55.367374-20.653679 87.046045 0.242414 98.827369 65.189993 212.1511 83.177117 327.268696 93.513652 42.693967 3.839839 73.887809-4.702833 69.786163-57.423045-2.986541-38.59232 15.417535-55.49343 53.6026-50.858473 49.025822 5.95369 56.928521-22.127557 56.307941-62.824031-1.532057-98.701314-0.523614-197.451111-0.523615-296.181514z m-158.034582 84.767353h-0.446042c0 91.933113-0.766028 183.895316 0.349076 275.809036 0.484828 39.542584-11.8492 62.019216-55.706754 56.763679-91.923416-11.024992-181.28694-30.24358-261.012081-80.34572-28.275177-17.764103-49.025822-39.92075-48.89007-77.310697 0.698153-179.270055 0.59149-358.5692 0.135752-537.848952-0.106662-46.68895 18.326504-47.629517 55.221926-29.56482 76.96162 37.709933 158.693949 61.311367 245.022448 63.095535 50.965135 1.066622 67.148698 26.267989 65.926932 74.295065-2.162334 84.980677-0.601187 170.068017-0.601187 255.106874z m-779.215796 8.300258h-0.465435c0-87.113921 1.958706-174.276325-0.746636-261.302978-1.590236-51.886308 17.560475-75.924088 70.426137-77.407662 83.691035-2.375658 163.677982-25.404995 237.40095-62.9113 51.023314-25.977092 58.974496-7.766947 58.780564 37.845685-0.601187 146.6993-0.02909 293.417994-0.048483 440.136688-0.02909 149.016779-18.374987 174.761153-161.224751 216.669698-43.838161 12.828553-89.218075 20.721555-134.142252 29.526034-48.744622 9.551114-72.501201-7.301512-70.72673-61.253188 2.850789-87.016956 0.746635-174.189056 0.746636-261.302977z m889.523895-103.927762c0 73.577519 2.48232 147.271398-1.134497 220.674379-1.599933 32.405913 22.573598 89.74169-27.547936 91.341623-52.710516 1.687202-31.368381-56.560052-31.969568-88.713854-2.501713-137.904518-3.316225-275.944788 0-413.800823 1.386608-57.384259-14.61272-83.84618-75.846515-86.056996-118.831379-4.285881-232.387827-30.456904-328.926807-106.167667-25.928609-20.323996-49.956692-16.978682-75.158059 2.104154-93.426384 70.775213-202.667862 97.663782-316.360062 102.958105-67.109912 3.122293-84.680084 30.21449-82.798951 93.794853 4.179219 142.41342 1.89083 285.04986 0.64967 427.608728-0.242414 27.063107 11.674662 69.815253-32.260465 69.863736-40.337702 0.058179-28.003674-40.754654-28.168515-65.519675-1.076318-165.530026 0.213324-331.089141-1.037532-496.619167-0.319987-42.325497 10.57895-67.235967 56.812162-78.212476 95.995973-22.786923 190.401709-52.245081 285.660743-78.222173 35.925766-9.812922 68.069872-22.127557 93.271239-53.476545 32.464093-40.415274 92.757321-41.704917 123.776626-2.104154 24.91047 31.746547 56.337031 44.924176 92.369458 54.708008 95.307517 25.821947 189.606591 55.929775 285.874068 77.27191 52.885054 11.723145 64.676075 39.55228 63.308859 87.181797-2.268996 80.394203-0.610883 160.904765-0.513918 241.386237z"  horiz-adv-x="1098" />

    
    <glyph glyph-name="dianpuxinxi" unicode="&#58909;" d="M834.56 5.632H211.968c-20.992 0-26.624 12.288-26.624 35.328v247.808c0 14.848-12.288 26.624-26.624 26.624h-18.432c-14.848 0-26.624-12.288-26.624-26.624v-331.264c0-14.848 12.288-26.624 26.624-26.624H880.64c14.848 0 26.624 12.288 26.624 26.624V-20.48c0 14.848-12.288 26.624-26.624 26.624h-46.08v-0.512z m137.216 614.4c-7.168 25.6-14.848 41.472-22.016 67.072-43.008 84.48-62.464 130.56-104.96 155.136H186.368C146.944 827.904 114.176 772.608 98.304 737.28l-22.016-50.176C61.44 654.336 47.104 620.032 39.424 585.728c-7.168-41.472 0-84.48 14.848-117.248 29.184-67.072 86.528-108.544 144.384-117.248s129.536 25.6 165.888 84.48c36.864-50.176 86.528-84.48 144.384-84.48s108.544 32.768 144.384 84.48c43.008-67.072 122.368-101.376 187.904-75.776 73.216 15.872 168.448 102.4 130.56 260.096z m-116.224-168.448c-36.864-25.6-94.208-16.896-122.368 8.704-29.184 26.624-44.032 70.656-45.056 113.664 0 15.872-13.312 29.184-30.72 29.184h-6.144c-16.896 0-30.72-13.312-30.72-30.72 0-50.176-25.6-100.352-60.928-120.832-50.176-34.304-116.224-8.704-144.384 41.472-10.752 24.576-13.312 52.736-14.848 79.36 0 15.872-13.312 29.184-30.72 29.184H358.4c-15.872 0-29.184-13.312-30.72-29.184-1.024-29.184-5.12-54.784-20.992-79.36-22.016-50.176-86.528-75.776-129.536-50.176S105.472 536.064 112.64 594.432c7.168 25.6 16.896 48.64 29.184 75.776 46.592 104.96 70.656 108.544 70.656 108.544h593.92c41.472-18.432 40.448-50.176 73.216-114.688 13.312-28.16 23.04-48.64 26.624-76.8v-25.6c0.512-43.008-21.504-84.48-50.688-110.08z m10.752-189.44h-253.952c-14.848 0-26.624 12.288-26.624 26.624s12.288 26.624 26.624 26.624h253.952c14.848 0 26.624-12.288 26.624-26.624s-11.776-26.624-26.624-26.624z m-2.048-97.792h-186.88c-14.848 0-26.624 12.288-26.624 26.624 0 14.848 12.288 26.624 26.624 26.624h185.856c14.848 0 26.624-12.288 26.624-26.624 1.024-14.336-11.264-26.624-25.6-26.624z"  horiz-adv-x="1024" />

    
    <glyph glyph-name="weibiaoti-_huaban" unicode="&#58936;" d="M139.81696 337.79712v122.88h40.96v-122.88zM713.25696 337.79712v122.88h40.96v-122.88zM282.624 220.16c0-67.584-55.296-122.88-122.88-122.88s-122.88 55.296-122.88 122.88 55.296 122.88 122.88 122.88 122.88-55.296 122.88-122.88z m-122.88 81.92c-45.056 0-81.92-36.864-81.92-81.92s36.864-81.92 81.92-81.92 81.92 36.864 81.92 81.92-36.864 81.92-81.92 81.92zM856.064 220.16c0-67.584-55.296-122.88-122.88-122.88s-122.88 55.296-122.88 122.88 55.296 122.88 122.88 122.88 122.88-55.296 122.88-122.88z m-122.88 81.92c-45.056 0-81.92-36.864-81.92-81.92s36.864-81.92 81.92-81.92 81.92 36.864 81.92 81.92-36.864 81.92-81.92 81.92zM550.912-89.088h-122.88c-16.384 0-30.72 14.336-30.72 30.72s14.336 30.72 30.72 30.72h122.88c16.384 0 30.72-14.336 30.72-30.72 0-18.432-14.336-30.72-30.72-30.72zM753.664 101.376h-40.96c0-79.872-63.488-143.36-143.36-143.36v-40.96c102.4 0 184.32 83.968 184.32 184.32zM139.264 459.776h40.96c0 122.88 81.92 225.28 194.56 256 2.048 16.384 6.144 30.72 12.288 45.056C245.76 734.208 139.264 609.28 139.264 459.776zM712.704 459.776h40.96c0 24.576-2.048 47.104-8.192 69.632h-43.008c6.144-20.48 10.24-45.056 10.24-69.632zM823.296 529.408h-286.72c-90.112 0-163.84 73.728-163.84 163.84s73.728 163.84 163.84 163.84h286.72c90.112 0 163.84-73.728 163.84-163.84s-73.728-163.84-163.84-163.84z m122.88 163.84c0 67.584-55.296 122.88-122.88 122.88h-286.72c-67.584 0-122.88-55.296-122.88-122.88s55.296-122.88 122.88-122.88h286.72c67.584 0 122.88 55.296 122.88 122.88zM567.296 693.248m-30.72 0a30.72 30.72 0 1 1 61.44 0 30.72 30.72 0 1 1-61.44 0ZM679.936 693.248m-30.72 0a30.72 30.72 0 1 1 61.44 0 30.72 30.72 0 1 1-61.44 0ZM792.576 693.248m-30.72 0a30.72 30.72 0 1 1 61.44 0 30.72 30.72 0 1 1-61.44 0Z"  horiz-adv-x="1024" />

    
    <glyph glyph-name="kanjia" unicode="&#58894;" d="M206.848 193.536l-153.6 153.6c-16.384 16.384-24.576 36.864-24.576 61.44V697.344c0 30.72 24.576 57.344 57.344 57.344h288.768c22.528 0 43.008-8.192 59.392-24.576l153.6-153.6-40.96-40.96-153.6 153.6c-6.144 6.144-12.288 8.192-20.48 8.192H83.968v-288.768c0-8.192 2.048-14.336 8.192-20.48l153.6-153.6-38.912-40.96z m473.088-270.336c-22.528 0-43.008 8.192-59.392 24.576L405.504 164.864l40.96 40.96 215.04-215.04c10.24-10.24 28.672-10.24 40.96 0L962.56 250.88c10.24 10.24 10.24 28.672 0 40.96L743.424 506.88l40.96 40.96 215.04-215.04c32.768-32.768 32.768-88.064 0-120.832L739.328-50.176c-16.384-18.432-38.912-26.624-59.392-26.624zM57.344-128L0-70.656 1021.952 896 57.344-128z m112.64 681.984c0-30.72 24.576-57.344 57.344-57.344 30.72 0 57.344 24.576 57.344 57.344 0 30.72-24.576 57.344-57.344 57.344-32.768 0-57.344-24.576-57.344-57.344z m0 0"  horiz-adv-x="1024" />

    
    <glyph glyph-name="baomingbiaodan" unicode="&#58982;" d="M866.156339 895.709704a45.20689 45.20689 0 0 0 50.322238-44.887181v-255.767411a45.20689 45.20689 0 0 0-90.41378 0V805.679575H103.266092v-842.36997H283.901827a45.270832 45.270832 0 0 0 31.970926-77.113874 45.270832 45.270832 0 0 0-31.970926-13.235964H57.995261a45.20689 45.20689 0 0 0-44.951123 50.258297V850.822523a45.015064 45.015064 0 0 0 14.898452 30.052671 45.142948 45.142948 0 0 0 30.052671 14.83451h808.22502z m-310.117986-844.927644v-87.600338h87.344571l283.646059 283.582117-87.856106 87.536397-283.070583-283.518176z m-90.030129 23.658486a45.015064 45.015064 0 0 0 12.980196 27.175287l327.701996 327.82988a44.951123 44.951123 0 0 0 45.334774 11.189824c7.481197-1.982197 14.514801-5.88265 20.397451-11.765301l150.199412-150.007587c9.591278-9.591278 13.939324-22.379649 13.10808-34.976193a44.887181 44.887181 0 0 0-13.10808-29.221427l-327.701996-327.82988a45.079006 45.079006 0 0 0-22.187823-12.148952 45.334774 45.334774 0 0 0-12.532603-1.790372H509.744451a45.20689 45.20689 0 0 0-44.119878 55.309703V68.557895c0 1.982197 0.127884 3.900453 0.383651 5.754767z m284.924896 535.704843c0-24.937323-20.269567-45.142948-45.20689-45.142948H223.796485a45.270832 45.270832 0 1 0 0 90.030129h481.546094a45.270832 45.270832 0 0 0 45.526599-44.887181zM600.158231 399.3291a45.20689 45.20689 0 0 0-45.20689-44.887181H223.860427a45.270832 45.270832 0 1 0 0 90.094071h331.090914c24.937323 0 45.20689-20.269567 45.20689-45.20689zM389.405884 188.83252c0-24.937323-20.269567-45.20689-45.20689-45.20689H223.796485a45.20689 45.20689 0 1 0 0 90.349839h120.338567c24.937323 0 45.20689-20.205626 45.20689-45.142949z"  horiz-adv-x="1087" />

    
    <glyph glyph-name="zhishizhuanlan" unicode="&#58957;" d="M878.592 626.688c-57.344 12.288-112.64 17.408-162.816 17.408-72.704 0-138.24-12.288-196.608-36.864l-4.096-2.048-4.096 2.048c-57.344 24.576-123.904 36.864-196.608 36.864-50.176 0-105.472-6.144-162.816-17.408-5.12-1.024-9.216-6.144-9.216-11.264V46.08c0-3.072 2.048-7.168 5.12-9.216 2.048-2.048 4.096-2.048 7.168-2.048 1.024 0 2.048 0 3.072 1.024 69.632 21.504 135.168 31.744 194.56 31.744 58.368 0 111.616-10.24 158.72-31.744 1.024-1.024 3.072-1.024 5.12-1.024s3.072 0 5.12 1.024c47.104 20.48 100.352 31.744 158.72 31.744 58.368 0 123.904-11.264 194.56-31.744 1.024 0 2.048-1.024 3.072-1.024 2.048 0 5.12 1.024 7.168 2.048 3.072 2.048 4.096 5.12 4.096 9.216V615.424c-1.024 5.12-4.096 10.24-10.24 11.264zM505.856 62.464c-46.08 18.432-98.304 27.648-153.6 27.648-53.248 0-110.592-8.192-172.032-24.576l-14.336-4.096V606.208l9.216 2.048c49.152 9.216 96.256 13.312 140.288 13.312 70.656 0 135.168-12.288 190.464-35.84v-523.264z m359.424-1.024l-14.336 4.096c-61.44 16.384-119.808 24.576-173.056 24.576-54.272 0-105.472-9.216-150.528-26.624V586.752c55.296 23.552 117.76 34.816 187.392 34.816 44.032 0 91.136-5.12 140.288-13.312l9.216-2.048v-544.768zM335.872 440.32h-20.48c-22.528 0-45.056-1.024-67.584-3.072-6.144-1.024-10.24-6.144-10.24-12.288s5.12-10.24 11.264-10.24h1.024c22.528 2.048 45.056 3.072 66.56 3.072h18.432c6.144 0 11.264 5.12 11.264 11.264 0 6.144-5.12 11.264-10.24 11.264z m93.184 79.872c-35.84 7.168-73.728 11.264-113.664 11.264-21.504 0-45.056-1.024-67.584-3.072-6.144-1.024-10.24-6.144-9.216-12.288 0-6.144 5.12-10.24 11.264-10.24 22.528 2.048 45.056 3.072 65.536 3.072 38.912 0 74.752-3.072 108.544-10.24h2.048c5.12 0 10.24 4.096 11.264 9.216 1.024 5.12-2.048 11.264-8.192 12.288z"  horiz-adv-x="1024" />

    
    <glyph glyph-name="shangpinsousuo" unicode="&#58924;" d="M307.2-128H46.545455a46.545455 46.545455 0 0 0-46.545455 46.545455v260.654545h101.981091v-205.218909H307.2V-128z m409.6 922.018909V896H977.454545a46.545455 46.545455 0 0 0 46.545455-46.545455v-260.654545h-101.981091V794.018909H716.8z m-409.6 0H101.981091V588.8H0V849.454545a46.545455 46.545455 0 0 0 46.545455 46.545455h260.654545v-101.981091zM1008.686545-112.686545a52.130909 52.130909 0 0 0-73.774545 0l-164.398545 164.398545a365.428364 365.428364 0 1 0 73.774545 73.774545l164.398545-164.398545a52.130909 52.130909 0 0 0 0-73.774545c0.093091 0 0 0 0 0zM737.186909 527.965091a261.026909 261.026909 0 1 1-369.152-369.152 261.026909 261.026909 0 1 1 369.152 369.105454z"  horiz-adv-x="1024" />

    
    <glyph glyph-name="Component-fuzhufenge" unicode="&#59144;" d="M967.68 619.52V788.48h-166.4V742.4H225.28V788.48H56.32v-166.4H102.4v-499.2H56.32v-166.4h166.4V0h576v-46.08h166.4v166.4H921.6V619.52h46.08z m-128 128h89.6v-89.6h-89.6V747.52z m-742.4 0h89.6v-89.6H97.28V747.52z m87.04-752.64H97.28v89.6h89.6v-89.6z m742.4 0h-89.6v89.6h89.6v-89.6z m-58.88 161.28v-35.84h-66.56v-66.56H225.28v66.56H156.16V619.52h66.56V686.08h576v-66.56h66.56v-463.36z"  horiz-adv-x="1024" />

    
    <glyph glyph-name="xianshizhekou" unicode="&#58954;" d="M45.070423 611.15493c-3.605634 0-10.816901 0-14.422536 3.605633-18.028169 10.816901-25.239437 32.450704-18.028169 50.478874C63.098592 769.802817 149.633803 849.126761 257.802817 892.394366c18.028169 7.211268 39.661972 0 46.873239-21.633803 7.211268-18.028169 0-39.661972-21.633802-46.873239-86.535211-36.056338-162.253521-104.56338-205.521127-191.098592-3.605634-14.422535-18.028169-21.633803-32.450704-21.633802zM978.929577 611.15493c-14.422535 0-25.239437 7.211268-32.450704 21.633802C903.211268 719.323944 831.098592 787.830986 740.957746 823.887324c-18.028169 7.211268-28.84507 28.84507-21.633802 46.873239 7.211268 18.028169 28.84507 28.84507 46.873239 21.633803 108.169014-43.267606 194.704225-122.591549 245.183099-227.154929 7.211268-18.028169 0-39.661972-18.028169-46.87324-3.605634-3.605634-10.816901-7.211268-14.422536-7.211267zM513.802817-109.971831c-259.605634 0-468.732394 209.126761-468.732394 465.126761S254.197183 823.887324 513.802817 823.887324s465.126761-209.126761 465.12676-468.732394-209.126761-465.126761-465.12676-465.126761z m0 861.746479c-219.943662 0-396.619718-176.676056-396.619718-396.619718s176.676056-393.014085 393.014084-393.014085 396.619718 176.676056 396.619718 393.014085S730.140845 751.774648 513.802817 751.774648zM578.704225 593.126761l-209.12676-245.183099c-7.211268-7.211268 0-21.633803 10.816901-21.633803h86.535211c7.211268 0 14.422535-7.211268 10.816902-14.422535l-32.450704-151.43662c-3.605634-14.422535 14.422535-21.633803 21.633802-10.816901l209.126761 241.577465c7.211268 7.211268 0 21.633803-10.816901 21.633802H578.704225c-7.211268 0-14.422535 7.211268-10.816901 14.422536l36.056338 155.042253c0 14.422535-18.028169 21.633803-25.239437 10.816902zM142.422535-128c-7.211268 0-14.422535 3.605634-21.633803 7.211268-14.422535 10.816901-18.028169 36.056338-7.211267 50.478873l90.140845 118.985915c10.816901 14.422535 36.056338 18.028169 50.478873 7.211268 14.422535-10.816901 18.028169-36.056338 7.211268-50.478873L171.267606-113.577465c-7.211268-10.816901-18.028169-14.422535-28.845071-14.422535zM881.577465-128c-10.816901 0-21.633803 3.605634-28.845071 14.422535l-90.140845 118.985916c-10.816901 14.422535-7.211268 39.661972 7.211268 50.478873 14.422535 10.816901 39.661972 7.211268 50.478873-7.211268l90.140845-118.985915c10.816901-14.422535 7.211268-39.661972-7.211267-50.478873-7.211268-7.211268-14.422535-7.211268-21.633803-7.211268z"  horiz-adv-x="1024" />

    
    <glyph glyph-name="gonggao" unicode="&#58900;" d="M825.6 735.4368a26.88 26.88 0 0 1-36.0704-11.1872 26.0352 26.0352 0 0 1 11.392-35.456C919.5008 628.224 944.896 498.5088 944.896 358.4c0-144.8448-29.0816-276.352-153.3184-335.0272-13.312-6.2976-18.9184-21.9904-12.4928-35.072a26.752 26.752 0 0 1 35.6608-12.3392C957.3888 43.3664 998.4 193.4848 998.4 358.4256c0 159.5136-36.7872 307.4816-172.8 377.0112z m-97.3824-127.6416a27.0336 27.0336 0 0 1-37.5808-4.0704 25.984 25.984 0 0 1 4.1216-36.992c74.752-59.0336 66.432-118.7072 66.432-208.3584 0-92.6208 5.9648-128.512-72.9344-187.8272-11.7248-8.8064-13.9776-25.344-5.0432-36.864a26.9056 26.9056 0 0 1 37.4784-4.9152c79.4368 69.3248 93.952 120.4992 93.952 229.632 0.0256 105.6512 1.0496 180.2752-86.4256 249.3952zM512-8.8064c0-7.04-11.52-10.0352-16.6912-13.312a13.5424 13.5424 0 0 0-16.2048 1.152l-237.696 193.792H129.8944c-42.1888 0-76.416 33.664-76.416 75.1616v197.376c0 41.472 34.2272 75.136 76.416 75.136H212.736l266.368 217.1904a13.824 13.824 0 0 0 8.8576 3.2768c2.5088 0 5.0176-0.7424 7.3472-2.176 5.1456-3.2512 16.6912-6.144 16.6912-13.184v-734.4128zM524.1856 783.104A67.9936 67.9936 0 0 1 487.9616 793.6c-15.616 0-30.9248-5.4784-43.0848-15.4368l-251.392-205.0304H129.8688C58.2656 573.1072 0 515.7888 0 445.3632v-197.3504c0-70.4512 58.2656-127.744 129.8944-127.744h92.2368l222.8224-181.6832c11.52-9.728 27.008-15.4112 42.9568-15.4112 12.5696 0 24.8832 3.5072 35.6352 10.112 21.248 13.3888 39.6032 51.456 39.6032 76.416V733.0304C563.2 758.016 544.8448 770.0736 524.1856 783.104z"  horiz-adv-x="1024" />

    
    <glyph glyph-name="gexinghuatuijian" unicode="&#58895;" d="M885.76 552.96v1.024 2.56l-1.536 8.704v0.512c-5.632 15.872-15.36 25.6-22.528 32.768l-5.12 5.12c-5.12 6.144-11.264 11.776-16.896 16.896l-0.512 0.512c-4.608 4.096-8.704 8.192-13.824 13.312L701.44 755.2l-1.536 1.536c-6.144 6.144-13.824 14.336-25.088 19.968-12.288 6.656-27.136 8.192-46.08 8.192h-37.888c-11.776 0-14.848 0-16.896-0.512-4.608-0.512-12.8-3.584-14.848-4.096l-1.024-0.512-16.384-10.752-0.512-0.512c-7.68-5.632-12.8-12.8-15.872-16.896l-0.512-1.024c-1.024-1.536-2.048-3.072-3.072-3.584-12.288-9.728-20.48-12.288-44.544-17.408h-0.512c-3.584-1.024-6.144-1.024-7.68-1.024l-14.848 0.512c-12.8 2.56-22.016 4.608-30.72 8.192-6.656 2.56-13.312 7.68-15.36 10.24l-1.024 1.536c-4.608 6.656-10.752 13.824-19.456 20.48-6.656 5.12-19.456 12.288-27.648 13.824-6.144 1.024-15.872 2.048-28.672 2.048-20.992 0-44.544-1.536-46.08-1.536L262.656 778.24h-0.512c-14.848-5.632-24.576-15.872-31.232-22.528l-130.56-128c-4.096-3.584-7.168-6.656-10.752-10.24-2.56-2.56-5.632-5.632-9.216-8.704-11.776-10.24-29.184-25.088-34.816-53.76-3.072-16.384 3.072-31.232 6.656-38.4 6.144-13.312 14.848-22.016 22.016-28.672l2.048-1.536c1.024-0.512 2.048-2.048 3.072-3.072l4.608-4.608 13.312-13.312 17.408-17.408 29.696-28.672 9.216-9.216 1.024-1.024 0.512-0.512c3.072-3.072 7.168-7.168 12.8-11.264l0.512-0.512c12.8-8.704 28.672-13.312 43.008-13.312 5.632 0 10.752 0.512 15.36 1.536v-264.192c0-10.752 0-23.04 4.608-34.816 6.144-16.384 19.456-28.672 28.672-34.304 15.36-9.728 33.792-11.264 51.712-11.264h276.48l25.088-0.512c20.992 0 45.056 1.024 64 15.36 12.288 9.216 22.016 24.576 25.6 41.472l0.512 5.12v0.512c0.512 25.088 0.512 49.664 0.512 75.776V386.048c9.728-2.56 19.968-3.072 30.72-1.024 26.624 5.12 43.52 25.088 52.736 35.328L866.816 496.64l3.072 4.096c5.632 7.168 19.456 25.6 15.872 52.224z m-244.736-94.208v-350.208c-0.512-1.024-1.536-2.048-1.024-2.048-2.56-1.536-12.288-2.56-25.6-2.56l-285.696 0.512-15.872-0.512c-12.288 0-16.384 1.024-16.896 1.536-1.024 0.512-2.56 2.048-3.072 3.072-0.512 3.072-0.512 10.752-0.512 14.848V459.264l-43.008 25.088-6.656-7.68c-3.072-3.584-12.8-14.336-15.36-16.896-5.632-6.144-10.24-10.24-14.336-12.288-1.536 0-5.12 1.024-6.656 2.048l-1.024 1.024c-0.512 0-1.536 1.024-3.584 3.584l-2.048 2.048-38.912 37.888c-5.632 5.12-10.752 10.24-15.872 15.872l-3.072 2.048c-2.56 2.048-5.12 4.608-7.68 7.68l-3.072 3.072-5.632 5.632c-2.048 2.048-4.096 4.096-6.656 6.144-5.12 4.096-6.656 6.144-7.168 7.68-0.512 1.024-0.512 2.048-1.536 3.584 1.024 4.096 4.608 7.168 14.336 16.384l10.752 10.752c1.024 1.024 2.048 2.048 3.584 3.072l0.512 0.512c1.536 1.536 3.072 3.072 5.12 4.608l108.544 105.984 24.064 23.552c7.168 7.68 8.192 7.68 10.752 7.68l11.264 1.024H347.136l2.048-1.024c0.512 0 1.024-0.512 1.024-0.512 2.048-2.048 4.096-4.608 6.656-7.68l1.536-2.048c13.312-16.896 34.816-27.136 41.472-29.696 12.8-5.12 26.112-8.704 45.056-12.288l14.336-1.536c7.68-1.536 17.92-1.024 31.232 1.536 30.208 5.632 49.152 11.776 72.704 30.72 6.656 5.12 10.752 10.24 14.336 15.36 1.024 1.024 1.536 2.048 2.56 3.072l1.024 1.024 4.608 2.56h0.512c0.512 0 1.536 0.512 2.56 0.512h28.16c4.608 0.512 8.704 0.512 13.824 0.512 9.728 0 14.336-0.512 16.384-1.024 3.072-2.048 7.168-6.144 10.752-9.728l122.368-119.296c5.12-5.12 10.24-10.24 16.384-15.872 3.072-3.072 9.216-8.704 14.336-13.824l5.632-5.632 0.512-0.512c3.072-2.56 4.608-4.608 6.144-6.144l0.512-3.072v-0.512c0-0.512-0.512-1.536-2.56-3.584l-76.8-74.752-4.096-4.608c-4.608-5.12-11.776-12.8-15.872-13.824-3.584-1.024-6.144 0.512-15.872 9.728l-28.672 27.648-38.912-26.112z"  horiz-adv-x="1024" />

    
    <glyph glyph-name="dianpubijikapian" unicode="&#58896;" d="M824.32-9.728H219.648c-28.672 0-52.224 25.088-52.224 55.808V721.92c0 30.72 23.552 55.808 52.224 55.808h482.816c19.456 0 34.816-15.36 34.816-34.816s-15.36-34.816-34.816-34.816H232.448v-648.192h578.56V517.632c0 17.92 14.848 32.768 32.768 32.768 17.92 0 32.768-14.848 32.768-32.768V46.08c0-31.232-23.552-55.808-52.224-55.808zM764.928 678.4l51.712-39.936-226.304-292.352-51.712 39.936 226.304 292.352zM520.704 363.52l-10.752-67.584 62.464 27.648-51.712 39.936zM837.12 665.6l34.816 45.056c11.776 15.36 9.728 36.352-4.608 47.616s-35.328 7.68-47.104-7.68l-34.816-45.056 51.712-39.936zM483.328 542.208H311.808c-14.336 0-26.112 11.776-26.112 26.112v4.096c0 14.336 11.776 26.112 26.112 26.112h172.032c14.336 0 26.112-11.776 26.112-26.112v-4.096c0-14.848-11.776-26.112-26.624-26.112zM483.328 394.24H311.808c-14.336 0-26.112 11.776-26.112 26.112v4.096c0 14.336 11.776 26.112 26.112 26.112h172.032c14.336 0 26.112-11.776 26.112-26.112v-4.096c0-14.336-11.776-26.112-26.624-26.112z"  horiz-adv-x="1024" />

    
    <glyph glyph-name="zhishifufeihuiyuan" unicode="&#58899;" d="M680.96 109.056c51.2 2.048 95.232 36.864 110.08 86.016 24.064 90.112 46.592 181.76 68.096 272.896 4.096 19.968-1.024 41.472-14.336 58.88-12.8 17.408-32.256 28.16-52.224 30.208h-0.512c-30.72 2.048-67.072-19.456-99.328-37.888-22.016-12.8-49.152-28.672-58.88-25.6-1.024 0-1.536 0.512-2.56 2.56-18.944 42.496-32.256 88.064-45.568 132.096-8.704 28.16-17.408 57.856-27.648 86.528-10.752 27.136-37.376 44.032-68.608 44.032-31.744 0-59.392-17.408-70.144-44.032-13.312-37.888-26.112-76.8-38.4-114.688-10.752-33.792-22.016-68.608-33.792-102.4-1.536-3.584-3.072-4.608-4.608-5.12-13.312-4.608-48.64 16.384-76.8 33.792-13.824 8.192-27.648 16.896-41.472 24.064-24.576 11.776-53.248 8.192-76.288-9.728-23.552-17.92-34.816-45.568-29.696-72.192 21.504-90.624 44.032-182.272 68.096-272.896 14.848-49.152 58.88-83.456 110.08-86.016M797.696 481.28c-17.92-92.672-43.008-184.832-67.584-270.848-7.168-22.016-26.624-37.376-49.152-38.4-127.488-4.096-256.512-4.096-383.488 0-23.04 1.536-42.496 16.384-49.664 38.4C223.232 296.96 198.144 388.608 180.224 481.28v1.024c0 3.072 1.024 6.144 3.072 8.704 2.048 2.56 5.12 3.584 7.68 3.584 8.192 0 35.84-16.384 58.368-29.696 18.432-10.752 36.864-22.016 55.296-30.72 18.432-8.192 39.936-8.704 59.392-0.512 19.456 8.192 34.816 23.552 41.984 42.496 10.24 28.672 18.944 58.368 28.16 86.528 13.312 43.008 27.136 88.064 44.032 130.048 1.536 4.096 5.632 6.656 9.728 6.656h0.512c4.608 0 8.192-2.56 9.728-6.656 14.848-37.376 27.136-77.312 38.912-115.2 10.24-34.304 21.504-69.632 34.304-103.936 12.8-30.72 45.056-50.176 77.824-46.08 24.576 3.072 52.224 19.968 81.92 37.376 16.384 10.24 33.792 20.48 50.176 28.16 5.12 2.048 9.728-1.024 10.752-2.048 3.072-1.536 6.144-5.632 5.632-9.728zM132.096 543.232l6.144 4.096 7.168 7.168 5.632 8.704 4.096 9.728 2.048 9.728 0.512 8.192-1.024 7.68-2.048 7.68-4.096 9.216-7.68 10.24-6.144 5.12-6.656 4.096-9.216 4.096-9.728 2.048-8.704 0.512-7.68-1.024-7.68-2.048-9.216-4.608-10.24-7.68-5.12-5.632-4.096-6.656-4.096-9.728-2.048-9.728-0.512-8.192 0.512-3.072 2.048-9.728 3.584-9.216 3.072-5.12 6.144-7.68 5.632-5.12 6.656-4.096 9.728-4.096 9.728-2.048 8.704-0.512 7.68 1.024 7.68 2.048zM438.272 807.936l3.584-9.216 3.072-5.12 6.144-7.168 5.632-5.632 7.168-4.096 9.216-4.096 9.728-2.048 8.704-0.512 7.68 1.024 7.68 2.56 9.216 4.096 6.144 4.608 7.168 7.168 5.632 8.192 4.096 9.728 2.048 9.728 0.512 8.192-1.024 8.192-2.048 7.68-4.096 9.216-7.68 9.728-6.144 5.12-6.656 4.608-9.216 3.584-9.728 2.56H486.4l-7.68-1.024-7.68-2.048-9.216-4.096-10.24-7.68-5.12-6.144-4.096-6.656-4.096-9.216-2.048-9.728-0.512-8.704 0.512-2.56zM924.672 598.528l-2.048 8.192-4.096 8.704-7.68 10.24-6.144 5.12-6.656 4.096-9.216 4.096-9.728 2.048-8.704 0.512-7.68-1.024-7.68-2.048-9.216-4.608-10.24-7.68-5.12-5.632-4.096-6.656-4.096-9.216-2.048-10.24-0.512-8.192 0.512-2.56 2.048-10.24 3.584-9.216 3.072-5.12 6.144-7.68 5.632-5.12 6.656-4.096 9.728-4.096 9.728-2.048 8.704-0.512 7.68 1.024 7.68 2.048 9.216 4.608 6.144 4.096 7.168 7.168 5.632 8.704 4.096 9.216 2.048 10.24 0.512 8.192zM731.648 31.232H248.832c-16.896 0-30.72 13.824-30.72 30.72s13.824 30.72 30.72 30.72h482.816c16.896 0 30.72-13.824 30.72-30.72s-13.824-30.72-30.72-30.72z"  horiz-adv-x="1024" />

    
    <glyph glyph-name="zhishizhuanlan1" unicode="&#58902;" d="M857.088 225.28c-3.584 12.8-8.192 23.552-12.288 31.232 18.944 32.768 22.016 69.12 8.192 104.96-4.096 11.264-9.728 20.48-13.824 27.648 27.136 45.568 23.552 84.48 15.36 109.568-9.216 28.16-25.6 44.544-28.672 47.616l-4.096 4.096-281.6 98.816-3.072 1.024-360.448-91.648 328.704-178.688L798.72 491.008c1.536-3.072 2.56-6.144 4.096-9.216 6.656-19.968 3.584-40.96-9.216-62.976l-283.136-101.888-266.24 148.48c-4.096 2.048-8.704 3.584-13.312 3.584-9.728 0-18.944-5.632-24.064-13.824-3.584-6.144-4.608-13.824-2.56-20.992 2.048-7.168 6.656-12.8 12.8-16.384l288.256-160.768 287.232 103.424c3.072-5.12 6.656-11.264 9.728-18.944 7.168-19.968 6.144-37.888-3.584-55.808l-288.256-98.304-266.24 149.504c-4.096 2.048-8.704 3.584-13.312 3.584-9.728 0-18.944-5.12-24.064-13.824-7.168-13.312-2.56-29.696 10.752-37.376L505.344 128l293.376 100.352c2.048-4.608 4.608-10.24 6.144-16.896 5.12-19.968 2.56-40.448-6.656-61.44L512 55.808 243.712 204.8c-4.096 2.048-8.704 3.584-13.312 3.584-9.728 0-18.944-5.632-24.064-14.336-3.584-6.144-4.608-13.824-2.56-20.992 2.048-7.168 6.656-12.8 13.312-16.384l289.28-160.256 330.24 108.032 5.12 9.728c24.576 45.568 22.016 85.504 15.36 111.104z m-125.952 299.008L509.44 439.808l-31.232 16.896 225.28 76.8 27.648-9.216z"  horiz-adv-x="1024" />

    
    <glyph glyph-name="daka" unicode="&#58903;" d="M166.4 793.6a51.2 51.2 0 1 0 0-102.4H153.6a51.2 51.2 0 0 1-51.2-51.2v-614.4a51.2 51.2 0 0 1 51.2-51.2h716.8a51.2 51.2 0 0 1 51.2 51.2V640a51.2 51.2 0 0 1-51.2 51.2h-12.8a51.2 51.2 0 1 0 0 102.4h12.8a153.6 153.6 0 0 0 153.6-153.6v-614.4a153.6 153.6 0 0 0-153.6-153.6H153.6a153.6 153.6 0 0 0-153.6 153.6V640a153.6 153.6 0 0 0 153.6 153.6z m279.552-652.7488l-2.7392 0.1792a51.5328 51.5328 0 0 0-24.3712 8.8576l-0.6912 0.512a47.0272 47.0272 0 0 0-6.3488 5.376l2.7392-2.56a51.072 51.072 0 0 0-1.8944 1.7408l-0.8448 0.8448-179.2 179.2a51.2 51.2 0 0 0 72.3968 72.3968l146.7904-146.7648 284.2368 227.328a51.2 51.2 0 1 0 63.9488-79.9488l-320-256-1.4848-1.152a51.072 51.072 0 0 0-1.2288-0.896l2.7136 2.048a51.712 51.712 0 0 0-21.248-10.0864l-0.512-0.1024a46.08 46.08 0 0 0-8.0128-0.9728h-4.2752zM307.2 896a51.2 51.2 0 0 0 51.2-51.2v-179.2a51.2 51.2 0 1 0-102.4 0V844.8a51.2 51.2 0 0 0 51.2 51.2z m409.6 0a51.2 51.2 0 0 0 51.2-51.2v-179.2a51.2 51.2 0 1 0-102.4 0V844.8a51.2 51.2 0 0 0 51.2 51.2z m-153.6-102.4a51.2 51.2 0 1 0 0-102.4h-102.4a51.2 51.2 0 1 0 0 102.4z"  horiz-adv-x="1024" />

    
    <glyph glyph-name="mofang" unicode="&#58999;" d="M532.573383 224.811627v-204.274722h350.185238v204.274722z m291.821031-145.910516h-233.456825v87.54631h233.456825zM532.573383 720.907381v-437.731547h350.185238V720.907381z m291.821031-379.367341h-233.456825V662.543175h233.456825zM124.023938 458.268453v-437.731548h350.185238V458.268453z m291.821032-379.367342h-233.456825V399.904246h233.456825zM124.023938 720.907381v-204.274722h350.185238V720.907381z m291.821032-145.910516h-233.456825V662.543175h233.456825z"  horiz-adv-x="1024" />

    
    <glyph glyph-name="jinrudianpu" unicode="&#58946;" d="M266.778947 295.073684c-24.252632 0-45.810526 5.389474-64.673684 10.778948-59.284211 21.557895-107.789474 80.842105-129.347368 161.68421C37.726316 599.578947 80.842105 750.484211 185.936842 869.052632 191.326316 877.136842 202.105263 882.526316 215.578947 882.526316h665.6c26.947368 0 48.505263-13.473684 59.284211-37.726316 97.010526-194.021053 129.347368-328.757895 97.010526-414.989474-13.473684-37.726316-43.115789-67.368421-80.842105-83.536842-123.957895-51.2-207.494737-21.557895-258.694737 26.947369-48.505263-45.810526-99.705263-70.063158-156.294737-70.063158-37.726316 0-86.231579 10.778947-129.347368 61.978947-48.505263-53.894737-99.705263-70.063158-145.51579-70.063158zM234.442105 801.684211c-78.147368-97.010526-110.484211-212.884211-83.536842-312.589474 13.473684-53.894737 43.115789-94.315789 78.147369-107.789474 35.031579-13.473684 91.621053-18.863158 156.294736 75.452632 8.084211 10.778947 21.557895 18.863158 35.031579 16.168421 13.473684 0 26.947368-10.778947 32.336842-21.557895 29.642105-59.284211 64.673684-67.368421 88.926316-67.368421 40.421053 0 83.536842 24.252632 123.957895 75.452632 8.084211 10.778947 18.863158 16.168421 32.336842 13.473684 13.473684 0 24.252632-5.389474 32.336842-16.168421 29.642105-40.421053 83.536842-86.231579 196.71579-37.726316 18.863158 8.084211 29.642105 18.863158 37.726315 37.726316 16.168421 43.115789 13.473684 134.736842-88.926315 342.231579-231.747368 2.694737-447.326316 2.694737-641.347369 2.694737zM935.073684-114.526316h-700.631579c-8.084211 0-16.168421 2.694737-21.557894 5.389474-35.031579 21.557895-75.452632 67.368421-75.452632 153.6 0 21.557895 18.863158 40.421053 40.421053 40.421053s40.421053-18.863158 40.421052-40.421053c0-45.810526 13.473684-67.368421 29.642105-80.842105h649.431579V381.305263c0 21.557895 18.863158 40.421053 40.421053 40.421053s40.421053-18.863158 40.421053-40.421053V-74.105263c-2.694737-21.557895-18.863158-40.421053-43.11579-40.421053zM334.147368 44.463158c-10.778947 0-21.557895 5.389474-29.642105 13.473684-16.168421 16.168421-13.473684 43.115789 2.694737 56.589474l26.947368 24.252631H53.894737c-21.557895 0-40.421053 18.863158-40.421053 40.421053s18.863158 40.421053 40.421053 40.421053h382.652631c16.168421 0 32.336842-10.778947 37.726316-26.947369 5.389474-16.168421 2.694737-32.336842-10.778947-43.115789l-102.4-94.31579c-8.084211-5.389474-16.168421-10.778947-26.947369-10.778947z"  horiz-adv-x="1050" />

    
    <glyph glyph-name="lunbotu" unicode="&#58886;" d="M730.453333 59.733333H290.133333c-61.44 0-112.64 51.2-112.64 112.64V599.04c0 61.44 51.2 112.64 112.64 112.64h440.32c61.44 0 112.64-51.2 112.64-112.64v-426.666667c0-64.853333-51.2-112.64-112.64-112.64zM290.133333 680.96c-44.373333 0-81.92-37.546667-81.92-81.92v-426.666667c0-44.373333 37.546667-81.92 81.92-81.92h440.32c44.373333 0 81.92 37.546667 81.92 81.92V599.04c0 44.373333-37.546667 81.92-81.92 81.92H290.133333zM150.186667 158.72H71.68c-40.96 0-71.68 30.72-71.68 71.68v307.2c0 40.96 30.72 71.68 71.68 71.68h78.506667c6.826667 0 13.653333-6.826667 13.653333-13.653333s-6.826667-13.653333-13.653333-13.653334H71.68c-23.893333 0-40.96-20.48-40.96-40.96v-307.2c0-23.893333 20.48-40.96 40.96-40.96h78.506667c6.826667 0 13.653333-6.826667 13.653333-13.653333 0-13.653333-6.826667-20.48-13.653333-20.48zM952.32 158.72h-78.506667c-6.826667 0-13.653333 6.826667-13.653333 13.653333s6.826667 13.653333 13.653333 13.653334h78.506667c23.893333 0 40.96 20.48 40.96 40.96v307.2c0 23.893333-20.48 40.96-40.96 40.96h-78.506667c-6.826667 0-13.653333 6.826667-13.653333 13.653333s6.826667 13.653333 13.653333 13.653333h78.506667c40.96 0 71.68-30.72 71.68-71.68v-307.2c0-34.133333-30.72-64.853333-71.68-64.853333zM327.68 404.48c-51.2 0-92.16 40.96-92.16 92.16C235.52 544.426667 276.48 588.8 327.68 588.8c51.2 0 92.16-40.96 92.16-92.16 0-51.2-40.96-92.16-92.16-92.16z m0 153.6c-34.133333 0-61.44-27.306667-61.44-61.44s27.306667-61.44 61.44-61.44 61.44 27.306667 61.44 61.44-27.306667 61.44-61.44 61.44zM201.386667 182.613333l-17.066667 27.306667 194.56 129.706667 126.293333-75.093334 150.186667 235.52 184.32-245.76-23.893333-17.066666-160.426667 211.626666-139.946667-225.28-133.12 81.92z"  horiz-adv-x="1024" />

    
    <glyph glyph-name="datuhengxianghuadong" unicode="&#58888;" d="M51.2 691.2h716.8v-614.4H51.2V691.2z m179.2-307.2a76.8 76.8 0 1 1 0 153.6 76.8 76.8 0 0 1 0-153.6zM512 435.2l-153.6-204.8h307.2l-153.6 204.8zM870.4 691.2h102.4v-614.4h-102.4z"  horiz-adv-x="1024" />

    
    <glyph glyph-name="xiaotuhengxianghuadong" unicode="&#58889;" d="M51.2 588.8h358.4v-409.6H51.2zM512 588.8h204.8v-409.6h-204.8zM819.2 588.8h153.6v-409.6h-153.6z"  horiz-adv-x="1024" />

    
    <glyph glyph-name="daohanghengxianghuadong" unicode="&#58891;" d="M51.2 588.8h921.6v-409.6H51.2V588.8z m102.4-153.6v-102.4h153.6V435.2H153.6z m256 0v-102.4h204.8V435.2H409.6z m307.2 0v-102.4h153.6V435.2h-153.6z"  horiz-adv-x="1024" />

    
    <glyph glyph-name="yihangyige" unicode="&#58893;" d="M51.2 793.6h921.6v-614.4H51.2V793.6z m230.4-307.2a76.8 76.8 0 1 1 0 153.6 76.8 76.8 0 0 1 0-153.6zM614.4 588.8l-204.8-256h409.6l-204.8 256zM51.2 76.8h921.6v-102.4H51.2z"  horiz-adv-x="1024" />

    
    <glyph glyph-name="icon_tupian_lunbohaibao" unicode="&#58907;" d="M102.4 844.8h819.2c30.72 0 51.2-20.48 51.2-51.2v-665.6c0-30.72-20.48-51.2-51.2-51.2H102.4c-30.72 0-51.2 20.48-51.2 51.2V793.6c0 30.72 20.48 51.2 51.2 51.2z m512-256c-5.12 5.12-5.12 5.12 0 0-15.36 15.36-30.72 15.36-40.96 5.12l-312.32-307.2c-5.12-5.12-10.24-10.24-10.24-20.48 0-15.36 10.24-25.6 25.6-25.6h506.88c5.12 0 10.24 0 15.36 5.12 10.24 5.12 15.36 25.6 10.24 35.84L614.4 588.8zM281.6 537.6C322.56 537.6 358.4 573.44 358.4 614.4S322.56 691.2 281.6 691.2 204.8 655.36 204.8 614.4 240.64 537.6 281.6 537.6zM194.56 0h76.8c20.48 0 40.96-15.36 40.96-40.96s-20.48-35.84-46.08-35.84H194.56c-25.6 0-40.96 15.36-40.96 40.96s15.36 35.84 40.96 35.84z m276.48 0h76.8c20.48 0 40.96-15.36 40.96-40.96s-15.36-35.84-35.84-35.84H471.04c-20.48 0-40.96 15.36-40.96 40.96s20.48 35.84 40.96 35.84z m286.72 0h76.8c20.48 0 40.96-15.36 40.96-40.96s-20.48-35.84-46.08-35.84h-76.8c-20.48 0-40.96 15.36-40.96 40.96s20.48 35.84 46.08 35.84z"  horiz-adv-x="1024" />

    
    <glyph glyph-name="sanjiaoxingzuo" unicode="&#59035;" d="M155.2 327.5l621-424.4c45.3-31 106.9 1.5 106.9 56.4V808.4c0 54.9-61.5 87.4-106.9 56.4l-621-424.4c-39.7-27.2-39.7-85.8 0-112.9z"  horiz-adv-x="1024" />

    
    <glyph glyph-name="juyou" unicode="&#58880;" d="M72.704 691.2q-25.6 0-43.52 17.92t-17.92 43.52 17.92 43.52 43.52 17.92l675.84 0q25.6 0 43.52-17.92t17.92-43.52-17.92-43.52-43.52-17.92l-675.84 0zM748.544 568.32q25.6 0 43.52-17.92t17.92-43.52-17.92-43.52-43.52-17.92l-430.08 0q-25.6 0-43.52 17.92t-17.92 43.52 17.92 43.52 43.52 17.92l430.08 0zM748.544 322.56q25.6 0 43.52-17.92t17.92-43.52-17.92-43.52-43.52-17.92l-614.4 0q-25.6 0-43.52 17.92t-17.92 43.52 17.92 43.52 43.52 17.92l614.4 0zM748.544 76.8q25.6 0 43.52-17.92t17.92-43.52-17.92-43.52-43.52-17.92l-368.64 0q-25.6 0-43.52 17.92t-17.92 43.52 17.92 43.52 43.52 17.92l368.64 0z"  horiz-adv-x="1024" />

    
    <glyph glyph-name="juzhong" unicode="&#58883;" d="M772.713406 12.607567c19.455728 0 35.993096-6.911903 49.509707-20.786908 13.465411-13.823806 20.223717-30.565972 20.223717-50.072899 0-19.455728-6.758305-35.993096-20.223717-49.458508a67.327057 67.327057 0 0 0-49.509707-20.274916H210.340479c-19.455728 0-35.993096 6.758305-49.509707 20.274916a67.327057 67.327057 0 0 0-20.223716 49.458508c0 19.506927 6.758305 36.197893 20.223716 50.072899 13.516611 13.875006 30.00278 20.786909 49.509707 20.786908h562.372927z m140.593232 281.186464c19.455728 0 35.993096-6.911903 49.458507-20.786909 13.516611-13.823806 20.274916-30.565972 20.274917-50.072899 0-19.455728-6.758305-35.993096-20.274917-49.458508a67.275858 67.275858 0 0 0-49.458507-20.274916H69.747248c-19.455728 0-35.993096 6.758305-49.509707 20.274916A67.327057 67.327057 0 0 0 0.013824 222.934223c0 19.506927 6.758305 36.197893 20.223717 50.072899 13.516611 13.875006 30.00278 20.786909 49.509707 20.786909h843.55939z m-140.593232 280.060079c19.455728 0 35.993096-6.707106 49.509707-20.223717 13.465411-13.516611 20.223717-30.00278 20.223717-49.509707 0-19.455728-6.758305-36.146694-20.223717-50.021699a66.40547 66.40547 0 0 0-49.509707-20.838109H210.340479c-19.455728 0-35.993096 6.963103-49.509707 20.838109a69.221431 69.221431 0 0 0-20.223716 50.021699c0 19.506927 6.758305 35.993096 20.223716 49.509707 13.516611 13.516611 30.00278 20.223717 49.509707 20.223717h562.372927zM69.747248 714.498541c-19.455728 0-35.993096 6.911903-49.509707 20.786909A69.221431 69.221431 0 0 0 0.013824 785.30715c0 19.506927 6.758305 35.993096 20.223717 49.509707C33.805351 848.333467 50.240321 855.040573 69.747248 855.040573h843.55939c19.455728 0 35.993096-6.707106 49.458507-20.223716 13.516611-13.516611 20.274916-30.00278 20.274917-49.509707 0-19.455728-6.758305-36.146694-20.274917-50.0217-13.465411-13.875006-29.951581-20.786909-49.458507-20.786909H69.747248z"  horiz-adv-x="1024" />

    
    <glyph glyph-name="horizontal-left" unicode="&#58881;" d="M874.66666667 832.512q26.624 0 45.056-18.432t18.432-45.056-18.432-45.056-45.056-18.432l-704.512 0q-26.624 0-45.056 18.432t-18.432 45.056 18.432 45.056 45.056 18.432l704.512 0zM170.15466667 448.512q-26.624 0-45.056 18.432t-18.432 45.056 18.432 46.08 45.056 19.456l447.488 0q26.624 0 45.056-19.456t18.432-46.08-18.432-45.056-45.056-18.432l-447.488 0zM810.15466667 320.51199999999994q27.648 0 46.08-18.432t18.432-45.056-18.432-45.056-46.08-18.432l-640 0q-26.624 0-45.056 18.432t-18.432 45.056 18.432 45.056 45.056 18.432l640 0zM554.15466667 64.51199999999994q26.624 0 45.056-18.944t18.432-45.568-18.432-45.056-45.056-18.432l-384 0q-26.624 0-45.056 18.432t-18.432 45.056 18.432 45.568 45.056 18.944l384 0z"  horiz-adv-x="1024" />

    
    <glyph glyph-name="wangye" unicode="&#58892;" d="M787.2 793.6H236.8C140.8 793.6 64 716.8 64 620.8v-473.6c0-96 76.8-172.8 172.8-172.8h550.4c96 0 172.8 76.8 172.8 172.8V620.8c0 96-76.8 172.8-172.8 172.8z m-550.4-64h550.4c57.6 0 108.8-51.2 108.8-108.8v-57.6H128v57.6c0 57.6 51.2 108.8 108.8 108.8z m550.4-691.2H236.8c-57.6 0-108.8 51.2-108.8 108.8V499.2h768v-352c0-57.6-51.2-108.8-108.8-108.8zM512 371.2H236.8c-19.2 0-32-12.8-32-32s12.8-32 32-32H512c19.2 0 32 12.8 32 32s-12.8 32-32 32zM377.6 217.6H236.8c-19.2 0-32-12.8-32-32s12.8-32 32-32H384c19.2 0 32 12.8 32 32s-19.2 32-38.4 32zM243.2 633.6m-38.4 0a38.4 38.4 0 1 1 76.8 0 38.4 38.4 0 1 1-76.8 0ZM358.4 633.6m-38.4 0a38.4 38.4 0 1 1 76.8 0 38.4 38.4 0 1 1-76.8 0ZM467.2 633.6m-38.4 0a38.4 38.4 0 1 1 76.8 0 38.4 38.4 0 1 1-76.8 0Z"  horiz-adv-x="1024" />

    
    <glyph glyph-name="zujian" unicode="&#58890;" d="M924.444444 224.711111c-5.688889 0-11.377778 0-17.066666-2.844444L512 54.044444 116.622222 221.866667c-5.688889 2.844444-11.377778 2.844444-17.066666 2.844444-22.755556 0-42.666667-19.911111-42.666667-42.666667 0-17.066667 11.377778-34.133333 25.6-39.822222l412.444444-176.355555c11.377778-5.688889 22.755556-5.688889 31.288889 0L938.666667 142.222222c14.222222 5.688889 25.6 22.755556 25.6 39.822222 2.844444 22.755556-17.066667 42.666667-39.822223 42.666667z m0 190.577778c-8.533333 0-17.066667-2.844444-17.066666-2.844445L512 244.622222 116.622222 412.444444s-11.377778 2.844444-17.066666 2.844445c-22.755556 0-42.666667-19.911111-42.666667-42.666667 0-17.066667 11.377778-34.133333 25.6-39.822222L494.933333 156.444444c5.688889-2.844444 11.377778-2.844444 17.066667-2.844444 5.688889 0 11.377778 0 17.066667 2.844444l412.444444 176.355556c14.222222 5.688889 25.6 22.755556 25.6 39.822222 0 22.755556-19.911111 42.666667-42.666667 42.666667zM82.488889 523.377778l412.444444-176.355556c5.688889-2.844444 11.377778-2.844444 17.066667-2.844444 5.688889 0 11.377778 0 17.066667 2.844444l412.444444 176.355556c14.222222 5.688889 25.6 22.755556 25.6 39.822222 0 17.066667-11.377778 34.133333-25.6 39.822222L529.066667 779.377778c-11.377778 5.688889-22.755556 5.688889-31.288889 0L82.488889 603.022222c-14.222222-5.688889-25.6-22.755556-25.6-39.822222 0-19.911111 11.377778-34.133333 25.6-39.822222z"  horiz-adv-x="1024" />

    
    <glyph glyph-name="goods" unicode="&#59201;" d="M829.132 805.861h-634.334c-45.078 0-81.693-38.783-81.693-86.501v-671.722c0-47.73 36.631-86.5 81.693-86.5h634.405c45.063 0 81.693 38.77 81.693 86.5v671.779c-0.057 47.718-36.701 86.444-81.764 86.444zM765.634 547.385c-21.219-130.65-128.683-227.397-253.369-227.397-124.9 0-232.807 97.331-253.683 227.327-21.448 9.146-36.616 31.293-36.616 57.264 0 34.133 26.142 61.801 58.377 61.801 32.234 0 58.377-27.67 58.377-61.801 0-9.219-2.040-17.881-5.45-25.743-2.312-8.489-5.95-16.566-12.258-23.274 17.995-99.285 97.218-168.834 191.239-168.834 94.364 0 174.074 70.675 191.239 168.721-6.093 6.293-9.688 13.885-12.072 22.004-3.823 8.233-6.164 17.351-6.164 27.141 0 34.134 26.142 61.801 58.376 61.801 32.235 0 58.377-27.668 58.377-61.801 0.012-25.903-15.057-48.004-36.373-57.209z"  horiz-adv-x="1024" />

    
    <glyph glyph-name="tupianguanggao" unicode="&#58897;" d="M809.856 716.8H215.6288A49.4336 49.4336 0 0 1 166.144 667.4176V75.008c0-27.2896 22.1696-49.3824 49.5104-49.3824h594.2272a49.4592 49.4592 0 0 1 49.536 49.3824V667.392A49.4592 49.4592 0 0 1 809.856 716.8z m-192.4608-439.3984l-95.0528-82.304-142.6176 131.6608-142.6432-131.6608-21.4528-24.4224V667.392h594.2272V75.008l-192.4608 202.4192z m35.6608 95.232a92.544 92.544 0 0 1 92.5696 92.416 92.544 92.544 0 0 1-92.5696 92.4672 92.5184 92.5184 0 0 1-92.5952-92.4672 92.5184 92.5184 0 0 1 92.5952-92.416zM136.9088 649.4208H75.1104A49.4336 49.4336 0 0 1 25.6 600.0384v-454.8352c0-27.264 22.1696-49.3824 49.5104-49.3824h61.7984v49.3824H75.1104V600.0384h61.7984V649.4208z m750.1824-553.9072h61.7984A49.4592 49.4592 0 0 1 998.4 144.8704V599.7312a49.4592 49.4592 0 0 1-49.5104 49.3824h-61.7984v-49.3824h61.7984V144.896h-61.7984v-49.3568z"  horiz-adv-x="1024" />

    
    <glyph glyph-name="icon_tupiandaohang" unicode="&#59072;" d="M992 640H32c-19.2 0-32-12.8-32-32v-448c0-19.2 12.8-32 32-32h960c19.2 0 32 12.8 32 32v448c0 19.2-12.8 32-32 32z m-32-448H64V576h896v-384zM179.2 352h115.2c19.2 0 25.6 6.4 25.6 19.2V492.8c0 12.8-6.4 19.2-19.2 19.2H179.2c-12.8 0-19.2-6.4-19.2-19.2v-115.2c0-19.2 6.4-25.6 19.2-25.6zM454.4 352h115.2c12.8 0 19.2 6.4 19.2 19.2V492.8c6.4 12.8-6.4 19.2-19.2 19.2H454.4c-12.8 0-19.2-6.4-19.2-19.2v-115.2c0-19.2 6.4-25.6 19.2-25.6zM723.2 352h115.2c12.8 0 19.2 6.4 19.2 19.2V492.8c0 12.8-6.4 19.2-19.2 19.2h-115.2c-12.8 0-19.2-6.4-19.2-19.2v-115.2c0-19.2 6.4-25.6 19.2-25.6zM160 288H320v-32H160z"  horiz-adv-x="1024" />

    
    <glyph glyph-name="Component-biaotiwenzi" unicode="&#59143;" d="M153.7024 691.2h537.6v-190.2336h-23.7824S622.1824 617.1136 568.6272 627.2512c-53.5296 10.1376-90.752 3.1744-90.752 3.1744l-0.6656-485.0432s14.848-32.768 39.3728-35.0976h54.2976V76.8H274.176l0.7424 34.304 47.5392 0.7936s35.712 11.7248 35.712 39.0144c0 27.264 0.768 475.5968 0.768 475.5968s-58.7264 8.5248-89.2416 0.7168C239.2064 619.4432 185.6512 572.672 177.4848 504.064L153.7024 503.2448V691.2zM614.5024 358.4h256v-87.1936h-11.3152s-21.6064 53.248-47.104 57.8816c-25.4976 4.6592-43.2128 1.4592-43.2128 1.4592l-0.3072-222.3104s7.0656-15.0272 18.7392-16.1024h25.856V76.8h-141.312l0.384 15.7184 22.6304 0.384s16.9984 5.376 16.9984 17.8688l0.3584 217.984s-27.9552 3.8912-42.496 0.3072c-14.4896-3.5584-40.0128-24.9856-43.904-56.4224l-11.3152-0.3584V358.4z"  horiz-adv-x="1024" />

    
    <glyph glyph-name="zhuangxiu" unicode="&#58885;" d="M445.952 499.965l12.917 13.032c9.51 9.512 21.912 15.082 34.84 16.848 1.716 39.99 3.69 80.217 5.726 120.965 1.627 32.558 17.067 163.853-8.732 188.85-43.355 42.007-44.254-24.555-43.097-65.867-5.763-88.952-3.755-181.703-1.654-273.828zM605.12 459.465l26.75-26.785c0.624 67.508 3.786 134.272 7.233 203.245 1.075 21.52 11.282 108.311-5.772 124.835-28.908 28.01-29.262-17.015-28.47-44.261-5.347-83.45-0.432-171.912 0.26-257.034zM780.289 115.47l-17.293 16.342 34.566 36.534c11.312 12.055 17.326 27.758 16.86 44.284-0.467 16.508-7.336 31.865-19.309 43.2l-248.15 234.83c-24.01 22.714-64.733 21.564-87.423-2.447l-81.082-86.555c-23.41-24.775-22.327-63.992 2.426-87.426l248.106-234.79c12.015-11.354 27.717-17.345 44.267-16.878 16.506 0.465 31.845 7.329 43.177 19.328l18.176 20.039 17.293-16.363c8.287-7.83 8.655-20.876 1.989-28.037l-60.275-54.584c-7.788-8.304-20.855-8.655-29.143-0.822L499.756 157.982c-24.79 23.412-64.015 22.367-87.424-2.405l-6.03-6.378 0.074-0.069L207.98-53.372c-4.349-4.565-4.227-17.783 3.995-25.617 8.222-7.833 21.43-7.314 25.78-2.749l198.478 202.59 0.059-0.056 6.007 6.359c7.812 8.305 20.876 8.65 29.14 0.799v0.023l2.122-2.002v-0.024l162.62-153.874c12.545-11.837 28.77-17.4 44.66-16.952 15.478 0.436 30.626 6.6 41.622 18.293l60.274 54.587c23.432 24.774 22.343 64.011-2.448 87.464z m-46.037 78.148v0.002c-3.91-4.031-9.046-6.156-14.258-6.303-5.362-0.152-10.758 1.76-14.892 5.766L491.36 399.245c-8.187 7.919-8.431 20.945-0.514 29.152 7.895 8.183 20.963 8.45 29.148 0.51l213.723-206.142c8.183-7.914 8.449-20.942 0.534-29.147zM724.563 455.178l4.485 20.074 6.784 5.45-6.89 5.652-5.605 13.611-3.96-14.177-6.98-5.924 6.793-4.956zM776.16 526.558l8.927 39.963 13.507 10.85-13.717 11.25-11.158 27.097-7.883-28.224-13.897-11.791 13.524-9.867zM239.592 235.259l6.304 28.222 9.538 7.662-9.687 7.945-7.879 19.135-5.566-19.93-9.814-8.328 9.55-6.968z"  horiz-adv-x="1024" />

    


  </font>
</defs>
</svg>
